Baby TV - 10 DVDs en Español (2003-2008)

Category: Uncategorized


Posted on 2011-06-08. By anonymous.

Description


1827645

Baby TV - 10 DVDs en Español (2003-2008)
2003-2008 | Spanish/English | DVD-Rip | AVI | 720х544 | XVID 1296 Kbps 25.000 fps | MP3 128 Kbps | Total Time: 06:19:54 | 4.0 GB
Genre: eLearning, Children, Animation | Studio: Baby TV | Subtitles: No

(Sp) Baby TV, es un canal para niños menores de 3 años. Los dibujos animados nacieron en Israel y han traspasado fronteras atrayendo la atención de los pequeños de 25 países. Son fragmentos pequeños, de tres minutos, tiempo adaptado a la concentración de los pequeños, con personajes de llamativos colores e historias sencillas en inglés que fomentan el aprendizaje.
Baby TV muestra valores educativos, y que marcan una clara diferencia en la programación diurna y nocturna, siendo durante el día un estimulo de actividad, con la enseñanza de la naturaleza, los colores, la música, etc., y por la noche, los contenidos ofrecen una combinación de imágenes de colores suaves y con lentos movimientos acompañados de música relajante.

(En) Home collection of recordings of popular broadcasts the English Channel Baby TV. TV Channel Baby TV has been developed for teaching children to develop their activities and interactions in the environment. Due to the small length and diversity of subjects children do not perceive the show as a study. Emphasis is placed both on the development of imagination and logic, and the acquisition of basic knowledge. In addition they enjoy to repeat the words of the favorite characters and after a few hits begin to sing songs. And that your child will be asked to include the transfer again, can not even doubt.

Source languages: Spanish (songs in English)”
List of episodes
01. Descubriendo el entorno. El mundo de Louis.
En este DVD, su pequeño aprenderá conceptos básicos de agrupación por clase (por ejemplo animales, juguetes, instrumentos musicales...). Al mismo tiempo, comenzará a familiarizarse con el idioma inglés.
02. Primeros ejercicios con tu bebé. Manos arriba.
En este DVD encontrará divertidos ejercicios que pueden compartir padres e hijo, especialmente diseñados para fomentar las habilidades motrices y sensoriales. Al mismo tiempo, los niños pueden familiarizarse con el idioma inglés.
03. Aprendiendo los colores y los números. Formas y colores.
Recorre los primeros pasos del descubrimiento de los números y los colores mediante la exploración de las conexiones entre objetos. Contiene música especialmente pensada para los más pequeños. Al mismo tiempo, los niños se pueden familiarizar con el idioma inglés.
04. Reconociendo los vegetales y mejorando la creatividad. Vegimales.
Un encantador mundo de vegetales animados en 3D, con los que se forman animales pieza, impulsan el pensamiento creativo y la imaginación, al tiempo que permite que los niños se familiaricen con la lengua inglesa.
05. Descubriendo objetos con acertijos divertidos. Tulli.
Con la animacion 3D como recurso, el programa es protagonizado por Tulli, un caracol curioso, que recorre la casa identificando objetos vistos desde la prespectiva de un bebeé. Estimula el método de la prueba y el error, al tiempo que permite que los niños se familiaricen con la lengua inglesa.
06. Descubriendo culturas y nuevos instrumentos musicales. Jammers.
Un cuarteto de instrumentos aprende nuevas culturas musicales recorriendo otros paises, conociendo nuevos instrumentos y escuchando diferentes y agradables sonidos, al tiempo que permite que los niños se familiaricen con la lengua inglesa.
07. Descubriendo objetos por su sonido y características. ¿Quién es? ¿Qué es?
Mediante un divertido juego de adivinanzas, una familia de títeres asocia los objetos con su función mediante la identificación visual y auditiva, al tiempo que permite que los niños se familiaricen con la lengua inglesa.
08. Resolviendo problemas con imaginación. Wooly.
Wooly es un niño muy dulce que supera desafíos utilizando su originalidad e imaginacion. Un programa estimulante con formato de un libro de cuentos, al tiempo que permite que los niños se familiaricen con la lengua inglesa.
09. Aprendiendo sobre las causas y sus efectos. 1, 2, 3.
A través de tres imágenes, "1,2,3" ilustra diferentes historias, poniendo en relieve la relación entre las diferentes etapas. Con una estética delicada, el programa fomenta en los bebés y niños, el desarrollo de la capacidad de asociación.
10. Las canciones de Baby TV. Primeras canciones.
Conocidas canciones internacionales cantadas en el lenguaje de los niños. Al tiempo que permite que los ñiños se familiaricen con la lengua inglesa.
MediaInfo - Baby TV 10 Primeras Canciones.avi
General
Complete name : F:\!!!UPLOAD\BabyTV10PrimerasCanciones\Baby TV 10 Primeras Canciones.avi
Format : AVI
Format/Info : Audio Video Interleave
File size : 348 MiB
Duration : 30mn 5s
Overall bit rate : 1 619 Kbps
Writing application : VirtualDubMod 1.5.10.2 (build 2540/release)
Writing library : VirtualDubMod build 2540/release

Video
ID : 0
Format : MPEG-4 Visual
Format profile : Advanced Simple@L5
Format settings, BVOP : Yes
Format settings, QPel : No
Format settings, GMC : No warppoints
Format settings, Matrix : Default (H.263)
Muxing mode : Packed bitstream
Codec ID : XVID
Codec ID/Hint : XviD
Duration : 30mn 5s
Bit rate : 1 481 Kbps
Width : 720 pixels
Height : 528 pixels
Display aspect ratio : 4:3
Frame rate : 25.000 fps
Color space : YUV
Chroma subsampling : 4:2:0
Bit depth : 8 bits
Scan type : Progressive
Compression mode : Lossy
Bits/(Pixel*Frame) : 0.156
Stream size : 319 MiB (91%)
Writing library : XviD 1.1.2 (UTC 2006-11-01)

Audio
ID : 1
Format : MPEG Audio
Format version : Version 1
Format profile : Layer 3
Mode : Joint stereo
Codec ID : 55
Codec ID/Hint : MP3
Duration : 30mn 5s
Bit rate mode : Constant
Bit rate : 128 Kbps
Channel(s) : 2 channels
Sampling rate : 48.0 KHz
Compression mode : Lossy
Stream size : 27.6 MiB (8%)
Alignment : Aligned on interleaves
Interleave, duration : 40 ms (1.00 video frame)
Interleave, preload duration : 504 ms
1827651
1827653

1674127


See Folders:
FileSonic.com | WupLoad.com

Welcome to my Blog




Disclaimer:
Contents of this information are indexed from the Internet and not censored. All actions are under your responsibility. Send email to admin@ebookee.com to report links to illegal contents, we'll remove them immediately.

Search More...

Baby TV - 10 DVDs en Español (2003-2008)

Search free ebooks in ebookee.com!


Links

Download this book

No download links here
Please check the description for download links if any or do a search to find alternative books.

Need password?
Try RAR Password Recovery.

Can't Download?
Please search mirrors if you can't find download links for "Baby TV - 10 DVDs en Español (2003-2008)" in "Description" and someone else may update the links. Check the comments when back to find any updates.

Search Mirrors
Maybe some mirror pages will be helpful, search this book at top of this page or click here to find more info.


Related Books


Books related to "Baby TV - 10 DVDs en Español (2003-2008)":


Comments


No comments for "Baby TV - 10 DVDs en Español (2003-2008)".


    Add Your Comments

    1. Download links and password may be in the description section, read description carefully!
    2. Do a search to find mirrors if no download links or dead links.

    required

    required, will not be published

    need login

    required

    Not clear? Click here to refresh.

    Back to Top