Jamtrackcentral - Andy James - Psychic Transfusion EP Backings (2013)

Category: Lyrics


Posted on 2013-04-04. By anonymous.

Description


Jamtrackcentral - Andy James - Psychic Transfusion EP Backings (2013)
MP4+MP3 | AVC 3422kbps | English | 1280x720 | 25fps | AAC stereo 323kbps | 246 MB
Genre: Video Training

Andy James is back with his brutal new Psychic Transfusion EP, released through our JTC Records label. This Deluxe version includes the full EP, backing tracks and complete TAB and notation. This EP contains four brand new tracks and hits you like a sledge-hammer from start to finish. Filled with blistering shred throughout, this is Andy playing at his mind-blowing best! Andy teamed up with Alan 'Sacha' Laskow to create these immense tracks, and Avidity is also witness to an insane guest solo from the incredible Paul Wardingham. If you like your metal hard-hitting, mixed with pure emotion and riffs that you won't be able to get out of your head, then this EP is right up your street.

Full EP in high quality 320k MP3
√ EP backing tracks in high quality 320K MP3
√ EP live backings in high qualityy 320K MP3
√ Accurate TAB and notation in PDF and Powertab format
√ Bonus video performance of Vortex Mind

♪ Avidity (Feat. Paul Wardingham) - Key - B Minor / Tempo - 220 (4:03)
♪ In The Fading Light - Key - A Minor / Tempo - 73 (4:23)
♪ Vortex Mind - Key - A Minor / Tempo - 146 (4:28)
♪ Synergy - Key - D Minor / Tempo - 151 (3:51)

Mediainfo:

Format : MPEG-4
Format profile : Base Media / Version 2
Codec ID : mp42
File size : 129 MiB
Duration : 4mn 37s
Overall bit rate : 3 905 Kbps
Encoded date : UTC 2013-01-03 13:27:17
Tagged date : UTC 2013-01-04 12:10:54
Video #1
ID : 1
Format : AVC
Format/Info : Advanced Video Codec
Format profile : Baseline@L3.1
Format settings, CABAC : No
Format settings, ReFrames : 2 frames
Codec ID : avc1
Codec ID/Info : Advanced Video Coding
Duration : 4mn 37s
Bit rate mode : Variable
Bit rate : 3 422 Kbps
Width : 1 280 pixels
Height : 720 pixels
Display aspect ratio : 16:9
Frame rate mode : Constant
Frame rate : 25.000 fps
Resolution : 24 bits
Colorimetry : 4:2:0
Scan type : Progressive
Bits/(Pixel*Frame) : 0.149
Stream size : 113 MiB (88%)
Language : English
Encoded date : UTC 2013-01-03 13:27:14
Tagged date : UTC 2013-01-03 13:27:22
colour_primaries : BT.709-5, BT.1361, IEC 61966-2-4, SMPTE RP177
transfer_characteristics : BT.709-5, BT.1361
matrix_coefficients : BT.709-5, BT.1361, IEC 61966-2-4 709, SMPTE RP177
Audio #2
ID : 2
Format : AAC
Format/Info : Advanced Audio Codec
Format version : Version 4
Format profile : LC
Format settings, SBR : No
Codec ID : 40
Duration : 4mn 37s
Bit rate mode : Constant
Bit rate : 323 Kbps
Nominal bit rate : 320 Kbps
Channel(s) : 2 channels
Channel positions : L R
Sampling rate : 44.1 KHz
Resolution : 16 bits
Stream size : 10.7 MiB (8%)
Language : English
Encoded date : UTC 2013-01-03 13:27:14
Tagged date : UTC 2013-01-03 13:27:22





No mirrors please

Visit my blog, click here





Search More...
Jamtrackcentral - Andy James - Psychic Transfusion EP Backings (2013)

Search free ebooks in ebookee.com!


Related Archive Books

Archive Books related to "Jamtrackcentral - Andy James - Psychic Transfusion EP Backings (2013)":



Links
Download this book

No active download links here?
Please check the description for download links if any or do a search to find alternative books.


Related Books


Comments

No comments for "Jamtrackcentral - Andy James - Psychic Transfusion EP Backings (2013)".


    Add Your Comments
    1. Download links and password may be in the description section, read description carefully!
    2. Do a search to find mirrors if no download links or dead links.

    required

    required, will not be published

    need login

    required

    Not clear? Click here to refresh.

    Back to Top