Air Brush Action - Vandemon's Ghost Flames

Category: Arts


Posted on 2013-10-31. By anonymous.

Description


Air Brush Action - Vandemon's Ghost Flames
DVDRip | English | AVI/DIVX 29.970 fps 1197 Kbps | 720x480 | MP3 128 Kbps 48.0 khz | 35mn 41s | 342 MB
Genre: Video Training

“Flame master Vandeom de-mystifies one of the trendiest and profitable flame styles in an excellent, easy-to-follow instruction on a 2003 black Dodge Ram. You'll learn how to transfer patterns, use an electro pounce machine, how to use reducer, spray-painting techniques, how to achieve a 3-D look in your ghost flames!
Flame master Vandemon demystifies one of the trendiest and profitable flame styles in an excellent, easy-to-follow instruction on a 2003 black Dodge Ram.”
MediaInfo:
General
Complete name : Air Brush Action - Vandemon-s Ghost Flames.avi
Format : AVI
Format/Info : Audio Video Interleave
File size : 342 MiB
Duration : 35mn 41s
Overall bit rate : 1 339 Kbps

Video
ID : 0
Format : MPEG-4 Visual
Format profile : Simple@L1
Format settings, BVOP : No
Format settings, QPel : No
Format settings, GMC : No warppoints
Format settings, Matrix : Default (H.263)
Codec ID : DIVX
Codec ID/Info : Project Mayo
Codec ID/Hint : DivX 4
Duration : 35mn 41s
Source duration : 35mn 41s
Bit rate : 1 197 Kbps
Width : 720 pixels
Height : 480 pixels
Display aspect ratio : 2.000
Frame rate : 29.970 fps
Standard : NTSC
Color space : YUV
Chroma subsampling : 4:2:0
Bit depth : 8 bits
Scan type : Progressive
Compression mode : Lossy
Bits/(Pixel*Frame) : 0.116
Stream size : 305 MiB (89%)
Writing library : avc2.0.11.1110

Audio
ID : 1
Format : MPEG Audio
Format version : Version 1
Format profile : Layer 3
Mode : Joint stereo
Mode extension : MS Stereo
Codec ID : 55
Codec ID/Hint : MP3
Duration : 35mn 41s
Source duration : 35mn 41s
Bit rate mode : Constant
Bit rate : 128 Kbps
Channel(s) : 2 channels
Sampling rate : 48.0 KHz
Compression mode : Lossy
Stream size : 32.7 MiB (10%)
Alignment : Aligned on interleaves
Interleave, duration : 24 ms (0.72 video frame)

Screenshots




no mirrors please, Follow The Rules
Visit Polik88 Blog Here
no password



Sponsored High Speed Downloads
8510 dl's @ 3855 KB/s
Download Now [Full Version]
8684 dl's @ 2716 KB/s
Download Link 1 - Fast Download
9295 dl's @ 2497 KB/s
Download Mirror - Direct Download



Search More...
Air Brush Action - Vandemon's Ghost Flames

Search free ebooks in ebookee.com!


Related Archive Books

Archive Books related to "Air Brush Action - Vandemon's Ghost Flames":



Links
Download this book

No active download links here?
Please check the description for download links if any or do a search to find alternative books.


Related Books


Comments

No comments for "Air Brush Action - Vandemon's Ghost Flames".


    Add Your Comments
    1. Download links and password may be in the description section, read description carefully!
    2. Do a search to find mirrors if no download links or dead links.
    Back to Top