Aircraft Films - F4F Wildcat (2003)

Language: English

Category: Entertainment


Posted on 2014-03-23, by supnatural.

Description

http://i57.fastpic.ru/big/2014/0322/91/5531e0ea0d761ed592bcbd54d6544191.jpg
Aircraft Films - F4F Wildcat (2003)
PDTV | 720x544 | AVI/XviD @ 2373 Kbps | 44mn | Audio: English AC3 448 kbps, 2 channels | Subs: None | 895 MB
Genre: Documentary

This film focuses on the development and combat history of the Grumman F4F Wildcat, and was created from holdings at the National Archives, the National Museum of Naval Aviation, the Naval Historical Center, and the Marine Corps Historical Center. The F4F Wildcat was the front-line carrier fighter in the first days of the pacific war - flying off legendary ships like the Lexington, Saratoga, Hornet, Yorktown and Enterprise - the Wildcat held the line as America built for victory.
Aircraft Films returned to the film preservation masters and commissioned new digital transfers, and the result brings the viewer as close as possible to the original images captured by combat cameramen.


Video
ID : 0
Format : MPEG-4 Visual
Format profile : Advanced Simple@L5
Format settings, BVOP : Yes
Format settings, QPel : No
Format settings, GMC : No warppoints
Format settings, Matrix : Default (MPEG)
Codec ID : DX50
Codec ID/Hint : DivX 5
Duration : 44mn 11s
Bit rate : 2 373 Kbps
Width : 720 pixels
Height : 544 pixels
Display aspect ratio : 4:3
Frame rate : 29.970 fps
Color space : YUV
Chroma subsampling : 4:2:0
Bit depth : 8 bits
Scan type : Progressive
Compression mode : Lossy
Bits/(Pixel*Frame) : 0.202
Stream size : 750 MiB (84%)
Writing library : XviD 1.2.1 (UTC 2008-12-04)

Audio
ID : 1
Format : AC-3
Format/Info : Audio Coding 3
Mode extension : CM (complete main)
Codec ID : 2000
Duration : 44mn 11s
Bit rate mode : Constant
Bit rate : 448 Kbps
Channel(s) : 2 channels
Channel positions : Front: L R
Sampling rate : 48.0 KHz
Bit depth : 16 bits
Compression mode : Lossy
Stream size : 142 MiB (16%)
Alignment : Aligned on interleaves
Interleave, duration : 33 ms (1.00 video frame)

http://i58.fastpic.ru/big/2014/0322/e7/1d1303d1527469be0f9c0a4b7157f1e7.jpg
http://i33.fastpic.ru/big/2014/0322/86/68f56049cbdd91e26e2ab43c125fd586.jpg


DOWNLOAD LINKS
Buy Premium From My Links To Get Resumable Support & Max Speed & To Support Me



Links are Interchangeable - No Password - Single Extraction

Sponsored High Speed Downloads
9983 dl's @ 3050 KB/s
Download Now [Full Version]
5753 dl's @ 2096 KB/s
Download Link 1 - Fast Download
5232 dl's @ 3607 KB/s
Download Mirror - Direct Download



Search More...
Aircraft Films - F4F Wildcat (2003)

Search free ebooks in ebookee.com!


Links
Download this book

No active download links here?
Please check the description for download links if any or do a search to find alternative books.


Related Books


Comments

No comments for "Aircraft Films - F4F Wildcat (2003)".


    Add Your Comments
    1. Download links and password may be in the description section, read description carefully!
    2. Do a search to find mirrors if no download links or dead links.
    Back to Top