Arturo Sandoval - Trumpet Evolution (2003) CD Rip

Category: Lyrics


Posted on 2019-04-15, by Germany2020.

Description


1904150654040114.jpg



Artist: Arturo Sandoval
Title: Trumpet Evolution
Year Of Release: 2003
Label: Columbia[CSK 87195]
Genre: Latin Jazz, Swing, Bop
Quality: FLAC (image + .cue,log,scans)
Total Time: 71:34
Total Size: 467 MB(+3%)




Tracklist
1 Dipper Mouth Blues (in tribute to King Oliver)
2 When It's Sleepy Time Down South (to Louis Armstrong)
3 At the Jazz Band Ball (to Bix Beiderbecke)
4 La Virgen de la Macarena (to Rafael Mendez)
5 I Can't Get Started (to Bunny Berigan)
6 Concerto for Cootie (to Charles "Cootie" Williams)
7 Little Jazz (to Poy Eldridge)
8 The Man With a Horn (to Harry James)
9 Manteca (to Dizzi Gillespie)
10 Tee Pee Time (to Clark Terry)
11 Coloratura Concerto for Soprano: First Movement (to Timofei Dokshizer)
12 Nostalgia (to Fats Navarro)
13 'Round Midnight (to Miles Davis)
14 Maynard Ferguson (to Maynard Ferguson)
15 My Funny Valentine (to Chet Baker)
16 Joy Spring (to clifford Brown)
17 Concerto in D Major: First Movement (to Maurice Andre)
18 Up Jumped Spring (to Freddie Hubbard)
19 Later (to Wynton Marsalis)
Trumpeter Arturo Sandoval is one of those cats who can never be predictable. He's either amazing -- actually, technically he always is -- or his records are putrid exercises in hollow proficiency with no soul. Trumpet Evolution, which is literally a journey through the great trumpeters from jazz's and orchestral music's past, is easily the finest moment of Sandoval's long career and one of the greatest records jazz has produced in the preceding two decades. Sandoval has compiled a collection of tunes by composers and fellow horn players, from King Oliver to Wynton Marsalis, performed by a big band and, when needed, an orchestra, too. It isn't just playing tunes by these men -- whose tracks are sequenced in order of birthdate of the source of inspiration -- it's the mastery of their techniques; and given that there are 19 subjects here, that's a hell of a lot of mastery. And that word is not overused. Indeed what appears in the ear of the listener seems to be the creation of the impossible. Whether striding out blues by Louis Armstrong, Bix Beiderbecke, and Oliver, playing in the hot bebop styles of Dizzy Gillespie, Fats Navarro, and Clifford Brown, the muted, elegant silkiness of the warm, thin-toned masters such as Chet Baker, Harry James, and Miles Davis, or classical maestros such as Maurice Andre, Rafael Méndez, or Timofei Dokshizer and the full-throated sweetness of Bunny Berigan, Cootie Williams, Clark Terry, and Roy Eldridge, or the hard edgy sounds of Maynard Ferguson, or the technically perfect pitch of Marsalis, the effect is the same, perfection, and not just technical. The emotional sonances of these tunes ring as true as if Sandoval wrote them himself. In the booklet, either the musician paid tribute to or a relative or associate offering quotes, of course, praise Sandoval's work. And while the album is self-produced as well, Quincy Jones acted as an executive producer and no doubt wrote some charts. His contribution is noteworthy as well for its depth and warmth overall. This is a record so fine, so full of passion, grace, and elegance it simply needs to be heard to be believed.~Thom Jurek
1904150654050100.jpg
Exact Audio Copy V0.99 prebeta 4 from 23. January 2008
Отчёт EAC об извлечении, выполненном 14. июня 2009, 1:04
Arturo Sandoval / Trumpet Evolution
Дисковод: Optiarc DVD RW AD-7200A Adapter: 3 ID: 1
Режим чтения : Достоверность
Использование точного потока : Да
Отключение кэша аудио : Да
Использование указателей C2 : Нет
Коррекция смещения при чтении : 48
Способность читать области Lead-in и Lead-out : Нет
Заполнение пропущенных сэмплов тишиной : Да
Удаление блоков с тишиной в начале и конце : Нет[/center]

При вычислениях CRC использовались нулевые сэмплы : Да
Интерфейс : Установленный внешний ASPI-интерфейс
Выходной формат : Внутренние WAV-операции
Формат сэмплов : 44.100 Гц; 16 бит; стерео
TOC извлечённого CD
Трек | Старт | Длительность | Начальный сектор | Конечный сектор
---------------------------------------------------------------------
1 | 0:00.00 | 2:15.31 | 0 | 10155
2 | 2:15.31 | 3:02.40 | 10156 | 23845
3 | 5:17.71 | 2:56.13 | 23846 | 37058
4 | 8:14.09 | 3:06.64 | 37059 | 51072
5 | 11:20.73 | 4:35.09 | 51073 | 71706
6 | 15:56.07 | 3:51.58 | 71707 | 89089
7 | 19:47.65 | 2:40.72 | 89090 | 101161
8 | 22:28.62 | 3:30.21 | 101162 | 116932
9 | 25:59.08 | 3:23.28 | 116933 | 132185
10 | 29:22.36 | 4:07.69 | 132186 | 150779
11 | 33:30.30 | 3:41.00 | 150780 | 167354
12 | 37:11.30 | 3:31.24 | 167355 | 183203
13 | 40:42.54 | 5:42.34 | 183204 | 208887
14 | 46:25.13 | 4:16.52 | 208888 | 228139
15 | 50:41.65 | 4:25.28 | 228140 | 248042
16 | 55:07.18 | 4:17.02 | 248043 | 267319
17 | 59:24.20 | 3:57.50 | 267320 | 285144
18 | 63:21.70 | 4:11.53 | 285145 | 304022
19 | 67:33.48 | 4:01.04 | 304023 | 322101
Характеристики диапазона извлечения и сообщения об ошибках
Выбранный диапазон
Имя файла E:\Up-Down\Arturo Sandoval - Trumpet Evolution\Arturo Sandoval - Trumpet Evolution.wav
Пиковый уровень 99.8 %
Качество диапазона 100.0 %
CRC копии 8F6E39EB
Копирование... OK
Ошибок не произошло
Конец отчёта




uploadgig.png
https://uploadgig.com/file/download/F5ebe76aB1405c47/cxsou.Arturo.Sandoval..Trumpet.Evolution.2003.CD.Rip.rar
rapidgator.png
https://rapidgator.net/file/ce6e6f373c955af64f42c1863c9bb6b9/cxsou.Arturo.Sandoval..Trumpet.Evolution.2003.CD.Rip.rar
nitroflare.png
http://nitroflare.com/view/330412939EB6F9D/cxsou.Arturo.Sandoval..Trumpet.Evolution.2003.CD.Rip.rar


Sponsored High Speed Downloads
5199 dl's @ 2924 KB/s
Download Now [Full Version]
9326 dl's @ 3205 KB/s
Download Link 1 - Fast Download
7280 dl's @ 3408 KB/s
Download Mirror - Direct Download



Search More...
Arturo Sandoval - Trumpet Evolution (2003) CD Rip

Search free ebooks in ebookee.com!


Links
Download this book

No active download links here?
Please check the description for download links if any or do a search to find alternative books.


Related Books


Comments

No comments for "Arturo Sandoval - Trumpet Evolution (2003) CD Rip".


    Add Your Comments
    1. Download links and password may be in the description section, read description carefully!
    2. Do a search to find mirrors if no download links or dead links.
    Back to Top