Ask Video - Ear Training 101: Melodies, Intervals and Scales (2014)

Category: Lyrics


Posted on 2014-05-31. By anonymous.

Description


Ask Video - Ear Training 101: Melodies, Intervals and Scales (2014)
MP4 | AVC 164kbps | English | 1280x720 | 30fps | 2h 21mins | AAC stereo 96kbps | 298 MB
Genre: Video Training

Whether you perform, listen to or mix music, knowing the intervals and chords behind what you hear is an essential skill that all musicians need to have. The good news is that you can train your ears — beginning right here — in this course by Gregg Fine. Our music theory expert, Gregg Fine, has put together a fun and entertaining workout for your ears! In this first instalment in the Ear Training Series, Gregg dissects musical intervals and shows you how to get better at identifying them. He covers musical modes, both for the major scale and the melodic minor scale and tests your progress with some interactive exercises that you can run through at any time! Gregg also explains how scales are built, and helps you train your ear with more exercises that give your ears a solid workout. Finally, he takes it to the finale with an introduction to transcription — a fantastic way to develop your ear and learn music! Gregg also gives a real life example of a short solo that he transcribes using his DAW of choice, a musical staff, and some serious listening!

As a musician, your ear is arguably your most powerful tool. So educate your ears with this first course in our fascinating new series on Ear Training by Gregg Fine.

01 Introduction (05:50)
02 Relative Pitch vs. Perfect Pitch (03:22)
03 Half Step vs. Whole Step (05:20)
04 Exercise 1: HS vs. WS (03:03)
05 Exercise 2: HS vs. WS (03:10)
06 Solfege (04:23)
07 Tuning (03:36)
08 Tuning Exercise (03:22)
09 Intervallic Recognition (06:12)
10 Exercise 1: Intervals (03:28)
11 Exercise 2: Intervals (03:31)
12 Exercise 3: Intervals (05:27)
13 Modes from the Major Scale (04:29)
14 Listen to the Modes (03:50)
15 Exercise 1: Major Scale Modes (05:04)
16 Exercise 2: Major Scale Modes (07:11)
17 Minor Scale Type Recognition (05:53)
18 Exercise 1: Minor Scales (04:44)
19 Exercise 2: Minor Scales (04:16)
20 Exercise 3: Minor Scales (04:15)
21 Exercise 4: Minor Scales (04:20)
22 Modes from Melodic Minor (02:48)
23 Exercise 1: Melodic Minor Modes (05:06)
24 Exercise 2: Melodic Minor Modes (02:48)
25 Pentatonic Scales (06:43)
26 Exercise: Pentatonic Scales (03:51)
27 Symmetrical Scales (07:27)
28 Exercise 1: Symmetrical Scales (04:25)
29 Exercise 2: Symmetrical Scales (03:31)
30 The Importance of Transcription (01:40)
31 Tips for Transcribing a Solo (07:10)

Mediainfo:

Format : MPEG-4
Format profile : Base Media / Version 2
Codec ID : mp42
File size : 14.2 MiB
Duration : 7mn 27s
Overall bit rate : 266 Kbps
Encoded date : UTC 2014-05-15 09:39:23
Tagged date : UTC 2014-05-15 16:39:24
Writing application : Sorenson Squeeze
Comment : Encoded by
Video #2
ID : 2
Format : AVC
Format/Info : Advanced Video Codec
Format profile : Main@L3.1
Format settings, CABAC : Yes
Format settings, ReFrames : 4 frames
Codec ID : avc1
Codec ID/Info : Advanced Video Coding
Duration : 7mn 27s
Bit rate mode : Variable
Bit rate : 164 Kbps
Width : 1 280 pixels
Height : 720 pixels
Display aspect ratio : 16:9
Frame rate mode : Constant
Frame rate : 30.000 fps
Resolution : 24 bits
Colorimetry : 4:2:0
Scan type : Progressive
Bits/(Pixel*Frame) : 0.006
Stream size : 8.73 MiB (62%)
Writing library : x264 core 115
Encoding settings : cabac=1 / ref=3 / deblock=1:0:0 / analyse=0x1:0x111 / me=hex / subme=7 / psy=1 / psy_rd=1.00:0.00 / mixed_ref=1 / me_range=16 / chroma_me=1 / trellis=1 / 8x8dct=0 / cqm=0 / deadzone=21,11 / fast_pskip=1 / chroma_qp_offset=-2 / threads=1 / sliced_threads=0 / nr=0 / decimate=1 / interlaced=0 / bluray_compat=0 / constrained_intra=0 / bframes=3 / b_pyramid=2 / b_adapt=1 / b_bias=0 / direct=1 / weightb=1 / open_gop=0 / weightp=2 / keyint=300 / keyint_min=30 / scenecut=45 / intra_refresh=0 / rc_lookahead=40 / rc=crf / mbtree=1 / crf=23.0 / qcomp=0.60 / qpmin=0 / qpmax=69 / qpstep=4 / ip_ratio=1.40 / aq=1:1.00
Encoded date : UTC 2014-05-15 09:39:23
Tagged date : UTC 2014-05-15 09:39:23
Audio #1
ID : 1
Format : AAC
Format/Info : Advanced Audio Codec
Format version : Version 4
Format profile : LC
Format settings, SBR : No
Codec ID : 40
Duration : 7mn 26s
Bit rate mode : Constant
Bit rate : 96.0 Kbps
Channel(s) : 2 channels
Channel positions : L R
Sampling rate : 44.1 KHz
Resolution : 16 bits
Stream size : 5.11 MiB (36%)
Encoded date : UTC 2014-05-15 09:39:23
Tagged date : UTC 2014-05-15 09:39:23






No mirrors please

Visit my blog, click here


Sponsored High Speed Downloads
9379 dl's @ 3664 KB/s
Download Now [Full Version]
5223 dl's @ 2619 KB/s
Download Link 1 - Fast Download
5953 dl's @ 3711 KB/s
Download Mirror - Direct Download



Search More...
Ask Video - Ear Training 101: Melodies, Intervals and Scales (2014)

Search free ebooks in ebookee.com!


Links
Download this book

No active download links here?
Please check the description for download links if any or do a search to find alternative books.


Related Books


Comments

No comments for "Ask Video - Ear Training 101: Melodies, Intervals and Scales (2014)".


    Add Your Comments
    1. Download links and password may be in the description section, read description carefully!
    2. Do a search to find mirrors if no download links or dead links.
    Back to Top