Ask Video - Kontakt 201: Advanced Kontakt 5

Category: Technical

Tag: Science/Engineering


Posted on 2013-05-09, updated at 2019-01-12. By anonymous.

Description


Ask Video - Kontakt 201: Advanced Kontakt 5
English | MP4 | 1280 x 720 | AVC ~166 Kbps | 30 fps
AAC | 96 kbps | 44.1 KHz | 2 channels | 02:21:00 | 288 MB
Genre: Video Tutorial / Sound Processing (2013)

“Using Kontakt just to play back factory samples is like driving your Audi S5 in 4th gear at 25 mph. Boring! If you want to break the speed of sound, this accelerated course shows you how to put pedal to the metal and squeeze every ounce of horsepower from Native Instruments' supercharged sampler.”
OK, enough car analogies: let's downshift to see what makes this course redline! (oops... couldn't help myself.)
Seriously, Kontakt is a tweaker's dream come true. From recording your own samples to creating you own custom instruments, Kontakt does it all! You can even create your own scripts to graphically design your own user interface. Yes, this is one deep sampler that enables you to conceptualize and build instruments that are uniquely yours.
In this first advanced course we handed the keys to the very talented Matt Vanacoro who lifts up the hood and shows you some of the cooler stuff Kontakt can do. You learn all about creating rich multi-instruments and how to extend the power of some of the included patches. From there Matt plunges into advanced sampling techniques, mapping and effects processing.
This course concludes with a sneak peak at scripting as a teaser for what might me coming next in what we know will be the best Kontakt kourse kollection on the planet!

Content:
01 Introduction (Digging Deeper) (01:11)
02 Power User Options (05:47)
03 Optimizing Your Computer for Sampling (08:06)
04 CPU Management (How to load a BUNCH of plugins!) (04:24)
05 Purging Samples From Memory (07:03)
06 Splits and Layers (07:31)
07 Host Automation and Mapping (06:21)
08 Solid G EQ and Solid Bus Comp (07:37)
09 Tape Saturator & Transient Master (05:23)
10 Envelopes and Filters to Fine Tune Your Sound (07:11)
11 Advanced Retro Machines (08:06)
12 Building a Better Choir... with Choir (06:05)
13 Putting the ‘Band’ Together (06:28)
14 'Orchestral' for Scoring (03:44)
15 Fun With Synths! (07:37)
16 Dissecting Urban Beats (04:00)
17 Sampling (It’s All About Workflow) (04:24)
18 Building Your First Sampled Instrument (04:36)
19 Groups and Multiple Layers (06:44)
20 Auto-mapping Sample Import (03:26)
21 The Wave Editor (05:19)
22 Looping, Slicing and Time Machine (07:32)
23 What’s a Script? (03:56)
24 Expanding Your Sample Library with Komplete (05:52)
25 Where to Go From Here (01:42)

MediaInfo
General
Complete name : 8. Solid G EQ and Solid Bus Comp.mp4
Format : MPEG-4
Format profile : Base Media / Version 2
Codec ID : mp42
File size : 14.7 MiB
Duration : 7mn 37s
Overall bit rate : 269 Kbps
Encoded date : UTC 2013-05-07 16:56:56
Tagged date : UTC 2013-05-07 23:56:57
Writing application : Sorenson Squeeze
Comment : Encoded by
Video #2
ID : 2
Format : AVC
Format/Info : Advanced Video Codec
Format profile : Main@L3.1
Format settings, CABAC : Yes
Format settings, ReFrames : 4 frames
Codec ID : avc1
Codec ID/Info : Advanced Video Coding
Duration : 7mn 37s
Bit rate mode : Variable
Bit rate : 166 Kbps
Width : 1 280 pixels
Height : 720 pixels
Display aspect ratio : 16:9
Frame rate mode : Constant
Frame rate : 30.000 fps
Color space : YUV
Chroma subsampling : 4:2:0
Bit depth : 8 bits
Scan type : Progressive
Bits/(Pixel*Frame) : 0.006
Stream size : 9.07 MiB (62%)
Writing library : x264 core 115
Encoding settings : cabac=1 / ref=3 / deblock=1:0:0 / analyse=0x1:0x111 / me=hex / subme=7 / psy=1 / psy_rd=1.00:0.00 / mixed_ref=1 / me_range=16 / chroma_me=1 / trellis=1 / 8x8dct=0 / cqm=0 / deadzone=21,11 / fast_pskip=1 / chroma_qp_offset=-2 / threads=1 / sliced_threads=0 / nr=0 / decimate=1 / interlaced=0 / bluray_compat=0 / constrained_intra=0 / bframes=3 / b_pyramid=2 / b_adapt=1 / b_bias=0 / direct=1 / weightb=1 / open_gop=0 / weightp=2 / keyint=300 / keyint_min=30 / scenecut=45 / intra_refresh=0 / rc_lookahead=40 / rc=crf / mbtree=1 / crf=23.0 / qcomp=0.60 / qpmin=0 / qpmax=69 / qpstep=4 / ip_ratio=1.40 / aq=1:1.00
Encoded date : UTC 2013-05-07 16:56:56
Tagged date : UTC 2013-05-07 16:56:56
Audio #1
ID : 1
Format : AAC
Format/Info : Advanced Audio Codec
Format profile : LC
Codec ID : 40
Duration : 7mn 36s
Bit rate mode : Constant
Bit rate : 96.0 Kbps
Channel(s) : 2 channels
Channel positions : Front: L R
Sampling rate : 44.1 KHz
Compression mode : Lossy
Stream size : 5.23 MiB (36%)
Encoded date : UTC 2013-05-07 16:56:56
Tagged date : UTC 2013-05-07 16:56:56
Screenshots





For more, Visit my AH-blog

no mirrors please, Follow The Rules


Sponsored High Speed Downloads
9794 dl's @ 2246 KB/s
Download Now [Full Version]
7060 dl's @ 2950 KB/s
Download Link 1 - Fast Download
5722 dl's @ 2439 KB/s
Download Mirror - Direct Download



Search More...
Ask Video - Kontakt 201: Advanced Kontakt 5

Search free ebooks in ebookee.com!


Links
Download this book

No active download links here?
Please check the description for download links if any or do a search to find alternative books.


Related Books


Comments

No comments for "Ask Video - Kontakt 201: Advanced Kontakt 5".


    Add Your Comments
    1. Download links and password may be in the description section, read description carefully!
    2. Do a search to find mirrors if no download links or dead links.
    Back to Top