Ask Video - iZotope Alloy 2 Mixer's Toolbox (2014)

Category: Lyrics


Posted on 2014-05-24. By anonymous.

Description


Ask Video - iZotope Alloy 2 Mixer's Toolbox (2014)
MP4 | AVC 330kbps | English | 1280x720 | 30fps | 2h 33mins | AAC stereo 96kbps | 387 MB
Genre: Video Training

Our iZotope Alloy 2 course is here and it’s amazing! Join trainer Matt Hepworth and learn how adding this impressive channel-strip technology to your audio toolbox will make your mixes stand out and deliver! Alloy 2 is a full-featured channel strip that you can insert on any type of track to add clarity, definition and impact to your mixes. In this 32-tutorial course, by audio mixologist Matt Hepworth, you learn everything there is to know about this rockin’ plugin and all of its impressive audio processing technologies. Matt takes you through all of Alloy 2‘s modules. You learn about the Equalizer, Transient, Exciter, Dynamics, De-Esser and Limiter modules... but there’s more! You also see these modules in action as Matt explains how they work and shows how you can utilize them in all kinds of mixing scenarios.

By the time you finish this course you will not only be an iZotope Alloy 2 expert, you will also get a deep understanding of all the classic audio processing techniques that Alloy 2 bundles into its power channel-strip plugin. So sit back and let Matt show you the audio polish that’ll make your mixes really shine!
Be sure to watch all of our ever-expanding collection of iZotope courses taught by our favorite audio specialists: Matt Hepworth, Bill Burgess and G.W. Childs!

01 Intro to Alloy 2 (01:57)
02Using Alloy 2 in Your DAW (06:10)
03 Using Global & Module Presets (03:55)
04 Using the Bypass & Solo Buttons (03:17)
05 Reading the Meters (05:04)
06 Overview vs. Module View (03:55)
07 Zero Latency Mode (05:36)
08 Module Signal Flow (04:34)
09 History & Stored Settings (04:00)
10 The Spectrum (03:58)
11Using the Modifier Keys (04:36)
12 Equalizer Module Overview (04:39)
13 Adjusting Gain, Freq & Q-Factor (03:46)
14 Customizing Filters & Ranges (08:33)
15 Transient Module Overview (01:38)
16 Transient Single-band Mode (02:02)
17Transient Multi-band Mode (07:18)
18 Exciter Module Overview (02:47)
19 Exciter Single-band Mode (06:45)
20 Exciter Multi-band Mode (07:19)
21 Dynamics Modules Overview (07:16)
22 Single-band Dynamics (05:44)
23 Multi-band Dynamics (10:03)
24 Parallel Compression (06:45)
25 Sidechaining the Compressor (06:03)
26 Sidechaining the Gate (07:19)
27 De-Esser Module Overview (02:12)
28 Frequency & Threshold Adjustments (04:03)
29 Multiband & Broadband Modes (02:29)
30 Limiter Overview (03:14)
31 Threshold & Margin Controls (03:57)
32 Hard & Soft Limiting (02:21)

Mediainfo:

Format : MPEG-4
Format profile : Base Media / Version 2
Codec ID : mp42
File size : 22.6 MiB
Duration : 7mn 18s
Overall bit rate : 432 Kbps
Encoded date : UTC 2014-04-23 15:42:07
Tagged date : UTC 2014-04-23 22:42:08
Writing application : Sorenson Squeeze
Comment : Encoded by
Video #2
ID : 2
Format : AVC
Format/Info : Advanced Video Codec
Format profile : Main@L3.1
Format settings, CABAC : Yes
Format settings, ReFrames : 4 frames
Codec ID : avc1
Codec ID/Info : Advanced Video Coding
Duration : 7mn 18s
Bit rate mode : Variable
Bit rate : 330 Kbps
Width : 1 280 pixels
Height : 720 pixels
Display aspect ratio : 16:9
Frame rate mode : Constant
Frame rate : 30.000 fps
Resolution : 24 bits
Colorimetry : 4:2:0
Scan type : Progressive
Bits/(Pixel*Frame) : 0.012
Stream size : 17.2 MiB (76%)
Writing library : x264 core 115
Encoding settings : cabac=1 / ref=3 / deblock=1:0:0 / analyse=0x1:0x111 / me=hex / subme=7 / psy=1 / psy_rd=1.00:0.00 / mixed_ref=1 / me_range=16 / chroma_me=1 / trellis=1 / 8x8dct=0 / cqm=0 / deadzone=21,11 / fast_pskip=1 / chroma_qp_offset=-2 / threads=1 / sliced_threads=0 / nr=0 / decimate=1 / interlaced=0 / bluray_compat=0 / constrained_intra=0 / bframes=3 / b_pyramid=2 / b_adapt=1 / b_bias=0 / direct=1 / weightb=1 / open_gop=0 / weightp=2 / keyint=300 / keyint_min=30 / scenecut=45 / intra_refresh=0 / rc_lookahead=40 / rc=crf / mbtree=1 / crf=23.0 / qcomp=0.60 / qpmin=0 / qpmax=69 / qpstep=4 / ip_ratio=1.40 / aq=1:1.00
Encoded date : UTC 2014-04-23 15:42:07
Tagged date : UTC 2014-04-23 15:42:07
Audio #1
ID : 1
Format : AAC
Format/Info : Advanced Audio Codec
Format version : Version 4
Format profile : LC
Format settings, SBR : No
Codec ID : 40
Duration : 7mn 17s
Bit rate mode : Constant
Bit rate : 96.0 Kbps
Channel(s) : 2 channels
Channel positions : L R
Sampling rate : 44.1 KHz
Resolution : 16 bits
Stream size : 5.01 MiB (22%)
Encoded date : UTC 2014-04-23 15:42:07
Tagged date : UTC 2014-04-23 15:42:07






No mirrors please

Visit my blog, click here


Sponsored High Speed Downloads
8619 dl's @ 3662 KB/s
Download Now [Full Version]
8420 dl's @ 2190 KB/s
Download Link 1 - Fast Download
8971 dl's @ 3078 KB/s
Download Mirror - Direct Download



Search More...
Ask Video - iZotope Alloy 2 Mixer's Toolbox (2014)

Search free ebooks in ebookee.com!


Links
Download this book

No active download links here?
Please check the description for download links if any or do a search to find alternative books.


Related Books


Comments

No comments for "Ask Video - iZotope Alloy 2 Mixer's Toolbox (2014)".


    Add Your Comments
    1. Download links and password may be in the description section, read description carefully!
    2. Do a search to find mirrors if no download links or dead links.
    Back to Top