Basic Human Embryology - Temple University School of Medicine (Repost)

Category: Technical

Tag: Science/Engineering


Posted on 2013-11-01. By anonymous.

Description


Basic Human Embryology - Temple University School of Medicine (Repost)
English | MP4 | 720x576 | AVC 100 Kbps 25.000 fps | AAC 113 Kbps 44.1 khz | 5h 39mn | 485 MB
Genre: eLearning / medicine

“A series of informative videos about the development of the embryo, dismantled all the features that defined the modern science.

List of lectures:
01 - Early Embryology
02 - Vertebrate body plan
03 - Limb Development
04 - development of muscle and nerve
05 - Cardiovascular Embryology
06 - Cardiovascular Embryology II
07 - Respiratory development
08 - GI Development
09 - Development of the Kidney
10 - Head and Neck I
11 - Head and Neck development
12 - Reproductive system final”
MediaInfo:
General
Complete name : Temple University School of Medicine - Basic Human Embryology\1 - Early Embryology.mp4
Format : MPEG-4
Format profile : Base Media / Version 2
Codec ID : mp42
File size : 45.9 MiB
Duration : 29mn 47s
Overall bit rate mode : Variable
Overall bit rate : 215 Kbps
Encoded date : UTC 2011-03-04 20:20:51
Tagged date : UTC 2011-03-04 20:20:53
Writing application : mp4creator 1.4.4

Video
ID : 1
Format : AVC
Format/Info : Advanced Video Codec
Format profile : Baseline@L1.3
Format settings, CABAC : No
Format settings, ReFrames : 2 frames
Codec ID : avc1
Codec ID/Info : Advanced Video Coding
Duration : 29mn 47s
Bit rate mode : Variable
Bit rate : 100 Kbps
Width : 720 pixels
Height : 576 pixels
Display aspect ratio : 5:4
Frame rate mode : Constant
Frame rate : 25.000 fps
Standard : PAL
Color space : YUV
Chroma subsampling : 4:2:0
Bit depth : 8 bits
Scan type : Progressive
Bits/(Pixel*Frame) : 0.010
Stream size : 21.3 MiB (46%)
Language : English
Encoded date : UTC 2011-03-04 20:20:51
Tagged date : UTC 2011-03-04 20:20:53

Audio
ID : 2
Format : AAC
Format/Info : Advanced Audio Codec
Format profile : LC
Codec ID : 40
Duration : 29mn 45s
Source duration : 29mn 46s
Bit rate mode : Variable
Bit rate : 113 Kbps
Maximum bit rate : 126 Kbps
Channel(s) : 2 channels
Channel positions : Front: L R
Sampling rate : 44.1 KHz
Compression mode : Lossy
Stream size : 24.1 MiB (52%)
Source stream size : 24.1 MiB (52%)
Language : English
Encoded date : UTC 2011-03-04 20:20:53
Tagged date : UTC 2011-03-04 20:20:53

Screenshots




no mirrors please, Follow The Rules
Visit Polik88 Blog Here
no password



Sponsored High Speed Downloads
6622 dl's @ 3251 KB/s
Download Now [Full Version]
5233 dl's @ 3638 KB/s
Download Link 1 - Fast Download
6609 dl's @ 3086 KB/s
Download Mirror - Direct Download



Search More...
Basic Human Embryology - Temple University School of Medicine (Repost)

Search free ebooks in ebookee.com!


Links
Download this book

No active download links here?
Please check the description for download links if any or do a search to find alternative books.


Related Books

  1. Ebooks list page : 23638
  2. 2013-11-01Basic Human Embryology - Temple University School of Medicine
  3. 2011-08-12Basic Human Embryology: Temple University School of Medicine
  4. 2011-04-09Basic Human Embryology Temple University School of Medicine 2010 H264
  5. 2011-03-10Basic Human Embryology - Temple University School of Medicine
  6. 2011-03-08Basic Human Embryology - Temple University School of Medicine - 2010 H264
  7. 2011-03-08Basic Human Embryology - Temple University School of Medicine - 2010 H264
  8. 2011-03-08Basic Human Embryology - Temple University School of Medicine - 2010 H264
  9. 2011-03-08Basic Human Embryology - Temple University School of Medicine - 2010 H264
  10. 2012-01-22The Washington Manual® Pulmonary Medicine Subspecialty Consult - Washington University School Of Medicine Department Of Medicine
  11. 2011-12-25The Washington Manual® Pulmonary Medicine Subspecialty Consult - Washington University School Of Medicine Department Of Medicine
  12. 2011-12-21The Washington Manual® Pulmonary Medicine Subspecialty Consult - Washington University School Of Medicine Department Of Medicine
  13. 2011-06-30The Washington Manual of Surgery: Department of Surgery, Washington University School of Medicine, St. Louis, MO - Removed
  14. 2011-12-09The Washington Manual Pulmonary Medicine Subspecialty Consult - Removed
  15. 2013-06-16Yale University School of Medicine Heart Book (Repost)
  16. 2012-01-16The Washington Manual of Surgery (Fifth Edition)
  17. 2011-09-21[FSO] Basic Human Embryology - Jiwang WareZ Scene
  18. 2011-09-03Yale University School of Medicine Heart Book
  19. 2011-07-08The Washington Manual of Medical Therapeutics (Lippincott Manual Series (Formerly known as the Spiral Manual Series)) - Removed
  20. 2011-07-07The Washington Manual of Medical Therapeutics, 32nd edition - Removed

Comments

No comments for "Basic Human Embryology - Temple University School of Medicine (Repost)".


    Add Your Comments
    1. Download links and password may be in the description section, read description carefully!
    2. Do a search to find mirrors if no download links or dead links.
    Back to Top