Bert Monroy: Dreamscapes Volume 2 (2013) [repost]

Category: Arts


Posted on 2014-06-17. By anonymous.

Description


Bert Monroy: Dreamscapes Volume 2 (2013)
MOV | AVC 155kbps | English | 960x540 | 15fps | 3h 47mins | AAC stereo 160kbps | 2.15 GB
Genre: Video Training

Learn how to create artwork with Adobe Photoshop—no fine art skill required—and turn the ordinary into extraordinary. Author and illustrator Bert Monroy takes an unexciting photo and transforms it into an amazing dream sequence by combining it with other photos and techniques. This installment shows you how to fill your scenes with imaginary creatures, stormy weather, ancient ruins, and more. His process touches on compositing, digital painting, masking, and other key image editing techniques. All you need is Photoshop, some images that could use a boost, and your imagination!

Topics include:
Isolating and retouching composite images
Colorizing backgrounds
Adding shadows
Creating effects like smoke and sparkle
Positioning elements

Mediainfo:

Format : QuickTime
Format/Info : Original Apple specifications
File size : 12.6 MiB
Duration : 5mn 31s
Overall bit rate : 318 Kbps
Encoded date : UTC 2013-03-22 21:59:49
Tagged date : UTC 2013-03-22 21:59:49
Writing library : Apple QuickTime
Copyright : lynda.com
Video #2
ID : 2
Format : AVC
Format/Info : Advanced Video Codec
Format profile : Main@L3.1
Format settings, CABAC : Yes
Format settings, ReFrames : 3 frames
Codec ID : avc1
Codec ID/Info : Advanced Video Coding
Duration : 5mn 31s
Bit rate mode : Variable
Bit rate : 155 Kbps
Width : 960 pixels
Height : 540 pixels
Display aspect ratio : 16:9
Frame rate mode : Constant
Frame rate : 15.000 fps
Resolution : 24 bits
Colorimetry : 4:2:0
Scan type : Progressive
Bits/(Pixel*Frame) : 0.020
Stream size : 6.13 MiB (49%)
Encoded date : UTC 2013-03-22 21:59:49
Tagged date : UTC 2013-03-22 21:59:49
Audio #1
ID : 1
Format : AAC
Format/Info : Advanced Audio Codec
Format version : Version 4
Format profile : LC
Format settings, SBR : No
Format settings, PS : Yes
Codec ID : 40
Duration : 5mn 31s
Bit rate mode : Variable
Bit rate : 160 Kbps
Maximum bit rate : 162 Kbps
Channel(s) : 2 channels
Channel positions : Front: L R
Sampling rate : 48.0 KHz
Resolution : 16 bits
Stream size : 6.31 MiB (50%)
Encoded date : UTC 2013-03-22 21:59:49
Tagged date : UTC 2013-03-22 21:59:49






No mirrors please

Visit my blog, click here


Sponsored High Speed Downloads
6770 dl's @ 3902 KB/s
Download Now [Full Version]
5671 dl's @ 3387 KB/s
Download Link 1 - Fast Download
7766 dl's @ 3783 KB/s
Download Mirror - Direct Download



Search More...
Bert Monroy: Dreamscapes Volume 2 (2013) [repost]

Search free ebooks in ebookee.com!


Links
Download this book

No active download links here?
Please check the description for download links if any or do a search to find alternative books.


Related Books


Comments

No comments for "Bert Monroy: Dreamscapes Volume 2 (2013) [repost]".


    Add Your Comments
    1. Download links and password may be in the description section, read description carefully!
    2. Do a search to find mirrors if no download links or dead links.

    required

    required, will not be published

    need login

    required

    Not clear? Click here to refresh.

    Back to Top