Bushra Azhar - Mass Persuasion Method (2018)

Category: Tutorial

Tag: Database/SQL


Posted on 2018-12-10, by nokia241186.

Description




Bushra Azhar - Mass Persuasion Method (2018)
WEBRip | English | MP4 + PDF Guides | 1280 x 720 | AVC ~259 Kbps | 25 fps
AAC | 53.3 Kbps | 48.0 KHz | 2 channels | ~10 hours | 1.71 GB
Genre: eLearning Video / Business, Sales, Marketing
Find out how to write words that transform every online interaction into a non‑icky, non‑sucky selling experience!



Use The Language of Persuasion To Sell Smart, Reach Big & Make Bank!

She Lands On Your Sales Page...
Your price is great, a steal really...she should be jumping like a 3 year old on Christmas morning....because you are the answer to all her desperate prayers....the solution to all her frantic worries...
Yet she fidgets...ummms...I don't knows creep in.....maybe... maybe not...
You just stand there with your heart in your throat, desperately hoping for the sale to happen....for her to say YES...for the cha-ching to happen...
Then almost inexplicably, her YES slips right out of your hands and disappears into the ether, and you don't even know why...

Because here's the REAL problem...
People hate being sold to...

Even when they desperately need what you are selling..

Even when they are miserable and despondent...

Even when they would cut off their left limb to find a solution to the problem...

The moment you bring sale in the convo, their internal beepers go beep...beep beepty beep...

And THAT is
the alarm of death for your pitch...

So what can you do to get people to buy you without bringing sale in the conversation?
USE Human Psyche to turn people into fervent, raging fans without them knoing you are doing it...

Price: $799
More Info:
https://anonym.to/?https://persuasionvault.teachable.com/p/mpm



General
Complete name : \video_6.MP4
Format : MPEG-4
Format profile : Base Media / Version 2
Codec ID : mp42 (mp42/mp41/isom/avc1)
File size : 89.2 MiB
Duration : 39 min 24 s
Overall bit rate mode : Variable
Overall bit rate : 317 kb/s
Encoded date : UTC 2015-11-11 16:48:03
Tagged date : UTC 2015-11-11 16:48:03

Video
ID : 1
Format : AVC
Format/Info : Advanced Video Codec
Format profile :
Format settings : CABAC / 5 Ref Frames
Format settings, CABAC : Yes
Format settings, RefFrames : 5 frames
Codec ID : avc1
Codec ID/Info : Advanced Video Coding
Duration : 39 min 24 s
Bit rate : 259 kb/s
Width : 1 280 pixels
Height : 720 pixels
Display aspect ratio : 16:9
Frame rate mode : Constant
Frame rate : 25.000 FPS
Color space : YUV
Chroma subsampling : 4:2:0
Bit depth : 8 bits
Scan type : Progressive
Bits/(Pixel*Frame) : 0.011
Stream size : 73.0 MiB (82%)
Writing library : x264 core 148 r11 73ae2d1
Encoding settings : cabac=1 / ref=5 / deblock=1:0:0 / analyse=0x3:0x113 / me=umh / subme=8 / psy=1 / psy_rd=1.00:0.00 / mixed_ref=1 / me_range=16 / chroma_me=1 / trellis=1 / 8x8dct=1 / cqm=0 / deadzone=21,11 / fast_pskip=1 / chroma_qp_offset=-2 / threads=22 / lookahead_threads=3 / sliced_threads=0 / nr=0 / decimate=1 / interlaced=0 / bluray_compat=0 / stitchable=1 / constrained_intra=0 / bframes=3 / b_pyramid=2 / b_adapt=2 / b_bias=0 / direct=3 / weightb=1 / open_gop=0 / weightp=2 / keyint=infinite / keyint_min=25 / scenecut=40 / intra_refresh=0 / rc_lookahead=50 / rc=crf / mbtree=1 / crf=20.0 / qcomp=0.60 / qpmin=5 / qpmax=69 / qpstep=4 / vbv_maxrate=2750 / vbv_bufsize=7500 / crf_max=0.0 / nal_hrd=none / filler=0 / ip_ratio=1.40 / aq=1:1.00
Encoded date : UTC 2015-11-11 16:48:03
Tagged date : UTC 2015-11-11 16:48:03
Color range : Limited
Color primaries : BT.709
Transfer characteristics : BT.709
Matrix coefficients : BT.709

Audio
ID : 2
Format : AAC
Format/Info : Advanced Audio Codec
Format profile : LC
Codec ID : mp4a-40-2
Duration : 39 min 24 s
Bit rate mode : Variable
Bit rate : 53.3 kb/s
Channel(s) : 2 channels
Channel(s)_Original : 1 channel
Channel positions : Front: C
Sampling rate : 48.0 kHz
Frame rate : 46.875 FPS (1024 SPF)
Compression mode : Lossy
Stream size : 15.0 MiB (17%)
Encoded date : UTC 2015-11-11 16:48:03
Tagged date : UTC 2015-11-11 16:48:03

Screenshots








DOWNLOAD
(Buy premium account for maximum speed and resuming ability)







Sponsored High Speed Downloads
8123 dl's @ 2881 KB/s
Download Now [Full Version]
9350 dl's @ 2854 KB/s
Download Link 1 - Fast Download
7673 dl's @ 2120 KB/s
Download Mirror - Direct Download



Search More...
Bushra Azhar - Mass Persuasion Method (2018)

Search free ebooks in ebookee.com!


Related Archive Books

Archive Books related to "Bushra Azhar - Mass Persuasion Method (2018)":



Links
Download this book

No active download links here?
Please check the description for download links if any or do a search to find alternative books.


Related Books


Comments

No comments for "Bushra Azhar - Mass Persuasion Method (2018)".


    Add Your Comments
    1. Download links and password may be in the description section, read description carefully!
    2. Do a search to find mirrors if no download links or dead links.
    Back to Top