Cannonball Adderley - Alto Giant (1969) CD Rip

Category: Lyrics


Posted on 2019-04-14, by Germany2020.

Description


1904140428240114.jpg



Artist: Cannonball Adderley
Title: Alto Giant
Year Of Release: 1969
Label: Studio Songs[YZSO-10041]
Genre: Jazz, Hard Bop
Quality: FLAC (image + .cue,log)
Total Time: 44:01
Total Size: 133 MB(+3%)




Tracklist
01 - Scavenger
02 - Sweet Emma
03 - Ballads Medley
04 - This Here
05 - Manha De Carnaval
06 - Walk Tall
personnel :
Alto Saxophone - Cannonball Adderley
Bass - Victor Gaskin
Cornet - Nat Adderley
Drums - Louis Hayes
Piano - Joe Zawinul
1904140428250102.jpg
Exact Audio Copy V0.99 prebeta 5 from 4. May 2009
EAC extraction logfile from 1. November 2010, 13:18
Cannonball Adderley / Alto Giant
Used drive : HL-DT-STDVDRAM GT20N Adapter: 0 ID: 0
Read mode : Secure
Utilize accurate stream : Yes
Defeat audio cache : Yes
Make use of C2 pointers : No
Read offset correction : 667
Overread into Lead-In and Lead-Out : No
Fill up missing offset samples with silence : Yes
Delete leading and trailing silent blocks : No[/center]

Null samples used in CRC calculations : Yes
Used interface : Installed external ASPI interface
Used output format : Internal WAV Routines
Sample format : 44.100 Hz; 16 Bit; Stereo
TOC of the extracted CD
Track | Start | Length | Start sector | End sector
---------------------------------------------------------
1 | 0:00.00 | 11:27.02 | 0 | 51526
2 | 11:27.02 | 4:20.43 | 51527 | 71069
3 | 15:47.45 | 8:10.42 | 71070 | 107861
4 | 23:58.12 | 9:28.13 | 107862 | 150474
5 | 33:26.25 | 8:25.20 | 150475 | 188369
6 | 41:51.45 | 2:08.72 | 188370 | 198041
Range status and errors
Selected range
Filename D:\EAC\Cannonball Adderley - Alto Giant\Cannonball Adderley - Alto Giant.wav
Peak level 100.0 %
Range quality 100.0 %
Test CRC 62EDA982
Copy CRC 62EDA982
Copy OK
No errors occurred

AccurateRip summary

Track 1 accurately ripped (confidence 1) [7A374676]
Track 2 accurately ripped (confidence 1) [A7CEC995]
Track 3 accurately ripped (confidence 1) [00766359]
Track 4 accurately ripped (confidence 1) [51393B08]
Track 5 accurately ripped (confidence 1) [547E9645]
Track 6 accurately ripped (confidence 1) [E6BC86DB]

All tracks accurately ripped
End of status report




uploadgig.png
https://uploadgig.com/file/download/5A3b282b11bC57Bb/7kn5f.Cannonball.Adderley..Alto.Giant.1969.CD.Rip.rar
rapidgator.png
https://rapidgator.net/file/362510304d91bcb39bdc25ab66b4e737/7kn5f.Cannonball.Adderley..Alto.Giant.1969.CD.Rip.rar
nitroflare.png
http://nitroflare.com/view/1B619C99985B4CA/7kn5f.Cannonball.Adderley..Alto.Giant.1969.CD.Rip.rar


Sponsored High Speed Downloads
7073 dl's @ 2650 KB/s
Download Now [Full Version]
8254 dl's @ 3391 KB/s
Download Link 1 - Fast Download
8313 dl's @ 3369 KB/s
Download Mirror - Direct Download



Search More...
Cannonball Adderley - Alto Giant (1969) CD Rip

Search free ebooks in ebookee.com!


Links
Download this book

No active download links here?
Please check the description for download links if any or do a search to find alternative books.


Related Books


Comments

No comments for "Cannonball Adderley - Alto Giant (1969) CD Rip".


    Add Your Comments
    1. Download links and password may be in the description section, read description carefully!
    2. Do a search to find mirrors if no download links or dead links.
    Back to Top