Chase Amante (GirlsChase) - One Date System

Category: Tutorial

Tag: Database/SQL


Posted on 2019-01-28, by nokia241186.

Description



Chase Amante (GirlsChase) - One Date System
WEBRip | English | MP4 + PDF Guides | 1280 x 720 | AVC ~774 Kbps | 29.970 fps
AAC | 72 Kbps | 44.1 KHz | 2 channels | 11:58:10 | 4.42 GB
Genre: eLearning Video / Relationship, Dating, Pickup

Chase woke up one day in 2004 tired of being alone. So, he set to work and read every book he could find, studied every teacher he could meet, and talked to every girl he could talk to to figure out dating. After four years, scads of lays, and many great girlfriends (plus plenty of failures along the way), he launched this website. He will teach you everything he knows about girls in one single program in his One Date System.



Inside the video you'll learn:

How to use the One Date SAC model to make a girl your girlfriend (or just your lover, if you didn't plan on sticking around) in one single, simple, easy-to-get date

The way to know which of three ‘dater boxes' a girl falls into (and thus, exactly which date format you need to give her to make her yours)

A fascinating study from the 1970s about what happens when you put a man and a woman on an unstable bridge together... and how you can use this on your dates (even when there isn't an unstable bridge nearby)

A neat tip on spotting girls ready for a ‘hookup date'... plus how to run a girl through this date, all the way to the bedroom, once you know it's what she needs
You'll also get to hear some of my story, including a bit about that awful date with Lisa you might've heard me talk about before...!

-One Date

Now I can take the girl I want as my girlfriend... in one simple, easy-to-get date. I can use the One Date SAC model to know exactly what date to give her. And once I'm on the date, I just follow the steps to make her mine. One Date shows me how to do it all with ease in step-by-step videos and an info-packed handbook.

-One Date 5-Text Sequence

I send a girl these 5 to-the-letter texts to ask her on a date. I follow the schedule guide to know when to send them. And can customize them or use them as-is.

-How To Ask Her Out In Awkward Settings & Situations

These strategies get me dates with the girls I want... even when there's no "perfect moment" to ask a girl out.

-10 Opening Sequences And Which To Use When

No matter where I find her, I know just what to say to meet her thanks to "Opening Sequences."

-What to Do When She Doesn't Text Back

This "text message repair kit" lets me solve any sticky text issue I run into. I don't have to worry about girls who stop responding anymore.

-The Dating Artisan (Modules 1&2)

I'll get access to The Dating Artisan, the most ultimate course on dating and mating ever created. I'll get deep, awesome coverage on every subject imaginable in dating. And have it all presented to me in a simple, practical, intuitive way. This is THE course that lets me take the lessons of One Date to the absolute hilt... and get the top of the top women. The most streamlined dating life. And the most incredible, fulfilling, supportive romantic relationships.


General
Complete name : Lesson 2_ Identify Her Date.mp4
Format : QuickTime
Format/Info : Original Apple specifications
File size : 223 MiB
Duration : 36 min 32 s
Overall bit rate mode : Variable
Overall bit rate : 854 kb/s
Encoded date : UTC 2017-06-13 18:17:32
Tagged date : UTC 2017-06-13 18:17:32
Writing application : Lavf53.29.100
FileExtension_Invalid : mov qt

Video
ID : 1
Format : AVC
Format/Info : Advanced Video Codec
Format profile :
Format settings : CABAC / 7 Ref Frames
Format settings, CABAC : Yes
Format settings, RefFrames : 7 frames
Codec ID : avc1
Codec ID/Info : Advanced Video Coding
Duration : 36 min 32 s
Bit rate : 774 kb/s
Width : 1 280 pixels
Height : 720 pixels
Display aspect ratio : 16:9
Frame rate mode : Constant
Frame rate : 29.970 (30000/1001) FPS
Color space : YUV
Chroma subsampling : 4:2:0
Bit depth : 8 bits
Scan type : Progressive
Bits/(Pixel*Frame) : 0.028
Stream size : 202 MiB (91%)
Writing library : x264 core 120 r2120 0c7dab9
Encoding settings : cabac=1 / ref=7 / deblock=1:0:0 / analyse=0x1:0x111 / me=umh / subme=8 / psy=0 / mixed_ref=1 / me_range=16 / chroma_me=1 / trellis=1 / 8x8dct=0 / cqm=0 / deadzone=21,11 / fast_pskip=1 / chroma_qp_offset=0 / threads=6 / sliced_threads=0 / nr=0 / decimate=1 / interlaced=0 / bluray_compat=0 / constrained_intra=0 / bframes=3 / b_pyramid=2 / b_adapt=2 / b_bias=0 / direct=3 / weightb=1 / open_gop=0 / weightp=2 / keyint=250 / keyint_min=25 / scenecut=40 / intra_refresh=0 / rc=2pass / mbtree=0 / bitrate=774 / ratetol=1.0 / qcomp=0.60 / qpmin=10 / qpmax=51 / qpstep=4 / cplxblur=20.0 / qblur=0.5 / ip_ratio=1.40 / pb_ratio=1.30 / aq=1:1.00
Encoded date : UTC 2017-06-13 18:17:32
Tagged date : UTC 2017-06-13 18:17:32

Audio
ID : 2
Format : AAC
Format/Info : Advanced Audio Codec
Format profile : LC
Codec ID : mp4a-40-2
Duration : 36 min 32 s
Bit rate mode : Variable
Bit rate : 72.0 kb/s
Maximum bit rate : 96.0 kb/s
Channel(s) : 2 channels
Channel positions : Front: L R
Sampling rate : 44.1 kHz
Frame rate : 43.066 FPS (1024 SPF)
Compression mode : Lossy
Stream size : 18.7 MiB (8%)
Language : English
Default : Yes
Alternate group : 1
Encoded date : UTC 2017-06-13 18:17:32
Tagged date : UTC 2017-06-13 18:17:32



DOWNLOAD
(Buy premium account for maximum speed and resuming ability)




https://rapidgator.net/file/34dda24beabf68209b7c14b7996fda8d/b7fkf.Chase.Amante.GirlsChase..One.Date.System.part1.rar
https://rapidgator.net/file/b6e314a04083b9b00288472b4c8acb49/b7fkf.Chase.Amante.GirlsChase..One.Date.System.part2.rar
https://rapidgator.net/file/da3a133bb579a9642e077ebc34f68a44/b7fkf.Chase.Amante.GirlsChase..One.Date.System.part3.rar
https://rapidgator.net/file/b58d06364293d80e1dec8a097763dd79/b7fkf.Chase.Amante.GirlsChase..One.Date.System.part4.rar
https://rapidgator.net/file/01ef0bbddb17e34361238b0a95b64d46/b7fkf.Chase.Amante.GirlsChase..One.Date.System.part5.rar
https://rapidgator.net/file/ef3ae2dbf6bcecd4c21b068661fdb947/b7fkf.Chase.Amante.GirlsChase..One.Date.System.part6.rar
https://rapidgator.net/file/b545d629051e4db0aa74881349e9b709/b7fkf.Chase.Amante.GirlsChase..One.Date.System.part7.rar




Sponsored High Speed Downloads
5843 dl's @ 2855 KB/s
Download Now [Full Version]
7396 dl's @ 2394 KB/s
Download Link 1 - Fast Download
9268 dl's @ 3782 KB/s
Download Mirror - Direct Download



Search More...
Chase Amante (GirlsChase) - One Date System

Search free ebooks in ebookee.com!


Related Archive Books

Archive Books related to "Chase Amante (GirlsChase) - One Date System":



Links
Download this book

No active download links here?
Please check the description for download links if any or do a search to find alternative books.


Related Books

  1. Ebooks list page : 38900
  2. 2019-02-24Chase Amante (GirlsChase) - One Date System
  3. 2019-02-23Chase Amante (GirlsChase) - One Date System [17 MP4, 8 PDF]
  4. 2019-02-19Chase Amante (GirlsChase) - One Date System [17 MP4, 8 PDF]
  5. 2019-02-18Chase Amante (GirlsChase) - One Date System [17 MP4, 8 PDF]
  6. 2019-01-11Chase Amante (GirlsChase) - One Date System
  7. 2019-01-10Chase Amante (GirlsChase) - One Date System
  8. 2019-01-09Chase Amante (GirlsChase) - One Date System
  9. 2019-01-08Chase Amante (GirlsChase) - One Date System
  10. 2019-01-07Chase Amante (GirlsChase) - One Date System
  11. 2017-11-18[PDF] One Date (The Hawkins Brothers) (The Hawkins Brothers: Marcus Book 1)
  12. 2017-07-10Mehow - The One(der) System
  13. 2016-09-18Chase Amante - How to Make Girls Chase [1 PDF]
  14. 2013-06-24Mehow-The One(der) System: Man's Guide to Getting Your 100% Perfect Girl - Removed
  15. 2013-06-23Mehow-The One(der) System: Man's Guide to Getting Your 100% Perfect Girl - Removed
  16. 2011-03-30Mehow - The One(der) System (Repost) - Removed
  17. 2011-02-20The One(der) System: Man's Guide to Getting Your 100% Perfect Girl - Removed
  18. 2011-02-18The One(der) System: Man's Guide to Getting Your 100% Perfect Girl - Removed
  19. 2011-02-10Mehow - The One(der) System - Removed
  20. 2011-02-10Mehow - The One(der) System - Removed

Comments

No comments for "Chase Amante (GirlsChase) - One Date System".


    Add Your Comments
    1. Download links and password may be in the description section, read description carefully!
    2. Do a search to find mirrors if no download links or dead links.
    Back to Top