Clean Code Java Case Study (2014 2016)

Category: Tutorial


Posted on 2019-09-11, by everest555.

Description

1905292320480098.jpg
Clean Code: Java Case Study (2014-2016)
WEBRip | English | MP4 | 1920 x 1080 | AVC ~1762 Kbps | 29.970 fps
AAC | 256 Kbps | 48.0 KHz | 2 channels | ~15 hours | 16.41 GB
Genre: Video Tutorial


=

Over the next weeks and months, Micah and Uncle Bob will re-implement the cleancoders.com website in Java before your very eyes. You'll see them applying all the principles, patterns, and practices that you've been learning in the Clean Code series. But instead of learning about those principles, patterns, and practices, you'll see how they use them in real life.

General
Complete name : 1920x1080] Clean Coders Java Case Study Episode 02 P1 Let the Testing Begin.mp4
Format : MPEG-4
Format profile : Base Media / Version 2
Codec ID : mp42 (mp42/mp41)
File size : 1 011 MiB
Duration : 1 h 9 min
Overall bit rate : 2 022 kb/s
Encoded date : UTC 2014-07-15 04:03:04
Tagged date : UTC 2014-07-15 04:03:24

Video
ID : 1
Format : AVC
Format/Info : Advanced Video Codec
Format settings : 2 Ref Frames
Format settings, CABAC : No
Format settings, RefFrames : 2 frames
Format settings, GOP : M=1, N=60
Codec ID : avc1
Codec ID/Info : Advanced Video Coding
Duration : 1 h 9 min
Bit rate : 1 762 kb/s
Width : 1 920 pixels
Height : 1 080 pixels
Display aspect ratio : 16:9
Frame rate mode : Constant
Frame rate : 29.970 (29970/1000) FPS
Color space : YUV
Chroma subsampling : 4:2:0
Bit depth : 8 bits
Scan type : Progressive
Bits/(Pixel*Frame) : 0.028
Stream size : 881 MiB (87%)
Language : English
Encoded date : UTC 2014-07-15 04:03:01
Tagged date : UTC 2014-07-15 04:03:24
Color range : Limited
Color primaries : BT.709
Transfer characteristics : BT.709
Matrix coefficients : BT.709

Audio
ID : 2
Format : AAC
Format/Info : Advanced Audio Codec
Format profile : LC
Codec ID : mp4a-40-2
Duration : 1 h 9 min
Bit rate mode : Constant
Bit rate : 256 kb/s
Channel(s) : 2 channels
Channel positions : Front: L R
Sampling rate : 48.0 kHz
Frame rate : 46.875 FPS (1024 SPF)
Compression mode : Lossy
Stream size : 128 MiB (13%)
Language : English
Encoded date : UTC 2014-07-15 04:03:01
Tagged date : UTC 2014-07-15 04:03:24

Screenshots
1905292320500094.jpg
1905292320520116.jpg
1905292320530124.jpg

Download link
Nitroflare

https://nitroflare.com/view/52562C75C681632/nnv5t.Clean.Code.Java.Case.Study.20142016.part01.rar
https://nitroflare.com/view/0C8E09791E69904/nnv5t.Clean.Code.Java.Case.Study.20142016.part02.rar
https://nitroflare.com/view/0584C6BEBEFD7A3/nnv5t.Clean.Code.Java.Case.Study.20142016.part03.rar
https://nitroflare.com/view/672607E07FAE1AE/nnv5t.Clean.Code.Java.Case.Study.20142016.part04.rar
https://nitroflare.com/view/409C6A9502C1EEB/nnv5t.Clean.Code.Java.Case.Study.20142016.part05.rar
https://nitroflare.com/view/C8F081B69731B14/nnv5t.Clean.Code.Java.Case.Study.20142016.part06.rar
https://nitroflare.com/view/CC55A3A2F512E29/nnv5t.Clean.Code.Java.Case.Study.20142016.part07.rar
https://nitroflare.com/view/F169C46A8E0EDB0/nnv5t.Clean.Code.Java.Case.Study.20142016.part08.rar
https://nitroflare.com/view/C82AF01E8736A48/nnv5t.Clean.Code.Java.Case.Study.20142016.part09.rar

Rapidgator

https://rapidgator.net/file/2295b8110ec669e837516e796f45a74d/nnv5t.Clean.Code.Java.Case.Study.20142016.part01.rar.html
https://rapidgator.net/file/199257c127fb9b60760c88e1b5a28e82/nnv5t.Clean.Code.Java.Case.Study.20142016.part02.rar.html
https://rapidgator.net/file/10fa912c53e384b5eec5a204c3979e12/nnv5t.Clean.Code.Java.Case.Study.20142016.part03.rar.html
https://rapidgator.net/file/1b3aaec23f6fcb816e7137f6094026d0/nnv5t.Clean.Code.Java.Case.Study.20142016.part04.rar.html
https://rapidgator.net/file/94dbf73c287787d082ac1913f848ee2b/nnv5t.Clean.Code.Java.Case.Study.20142016.part05.rar.html
https://rapidgator.net/file/db3076251c4d796c1629fe8c68de3fc1/nnv5t.Clean.Code.Java.Case.Study.20142016.part06.rar.html
https://rapidgator.net/file/358eb725305ce2132aac27c55b3ddff7/nnv5t.Clean.Code.Java.Case.Study.20142016.part07.rar.html
https://rapidgator.net/file/bf38849935f704000d39d7f019290e5f/nnv5t.Clean.Code.Java.Case.Study.20142016.part08.rar.html
https://rapidgator.net/file/cc7dc0c61610df01bea9f37fc4b3fe64/nnv5t.Clean.Code.Java.Case.Study.20142016.part09.rar.html


Sponsored High Speed Downloads
9336 dl's @ 2790 KB/s
Download Now [Full Version]
7476 dl's @ 3607 KB/s
Download Link 1 - Fast Download
7860 dl's @ 2772 KB/s
Download Mirror - Direct Download



Search More...
Clean Code Java Case Study (2014 2016)

Search free ebooks in ebookee.com!


Links
Download this book

No active download links here?
Please check the description for download links if any or do a search to find alternative books.


Related Books


Comments

No comments for "Clean Code Java Case Study (2014 2016)".


    Add Your Comments
    1. Download links and password may be in the description section, read description carefully!
    2. Do a search to find mirrors if no download links or dead links.
    Back to Top