Cold Comes The Night 2013 BDRip 720p AAC x264 - t@bl3t

Category: Entertainment


Posted on 2014-06-17, by interestinglike.

Description



Cold Comes The Night 2013 BDRip 720p AAC x264 - t@bl3t
| 2.03 GB
File: Cold Comes The Night 2013 BDRip 720p AAC x264 - /*
Size: 2167966518 bytes (2.02 GiB), duration: 01:30:27, avg.bitrate: 3196 kb/s
Audio: aac, 48000 Hz, stereo (und)
Video: h264, yuv420p, 1280x720, 23.98 fps(r) (und)

http://www.imdb.com/title/tt2511428/


A struggling motel owner and her daughter are taken hostage by a nearly blind career criminal to be his eyes as he attempts to retrieve his cash package from a crooked cop.

Title:Cold Comes the Night
Year:2013
Rating:5.7
Genre:Crime / Drama / Thriller
Director:Tze Chun
Cast:Alice Eve / Bryan Cranston / Logan Marshall-Green / Ursula Parker / Leo Fitzpatrick / Erin Cummings / Robin Taylor / Sarah Sokolovic / Marceline Hugot / Stephen Sheffer / Robert Prescott / Ashlie Atkinson / Dylan Chalfy / Horny Horny Horny Duck





NFo Notes


***********************************************************************************************
Cold Comes The Night 2013 BDRip 720p AAC x264 - t@bl3t
***********************************************************************************************
General Info
Sample Included......: No
DXVA Compliant.......: No
Chapters Included....: No
Source...............: COLD_COMES_TN_BLUEBIRD (26.5GB)
Container............: mp4
Length...............: 1h 30mn
Size.................: 2.02 GiB
Total Bitrate........: 3196 Kbps
IMDb Information.....:
http://www.imdb.com/title/tt2511428/

Genre................: Crime | Drama | Thriller
Audio Info
ID : 2
Format : AAC
Format/Info : Advanced Audio Codec
Format profile : LC
Codec ID : 40
Duration : 1h 30mn
Bit rate mode : Variable
Bit rate : 192 Kbps
Maximum bit rate : 200 Kbps
Channel(s) : 2 channels
Channel positions : Front: L R
Sampling rate : 48.0 KHz
Compression mode : Lossy
Stream size : 124 MiB (6%)
Title : F1_T3_Audio - English.mp4
Encoded date : UTC 2014-06-14 03:16:39
Tagged date : UTC 2014-06-14 03:16:41
Video Info
ID : 1
Format : AVC
Format/Info : Advanced Video Codec
Format profile : /*
Format settings, CABAC : Yes
Format settings, ReFrames : 4 frames
Codec ID : avc1
Codec ID/Info : Advanced Video Coding
Duration : 1h 30mn
Bit rate : 3 000 Kbps
Maximum bit rate : 15.7 Mbps
Width : 1 280 pixels
Height : 720 pixels
Display aspect ratio : 16:9
Frame rate mode : Constant
Frame rate : 23.976 fps
Color space : YUV
Chroma subsampling : 4:2:0
Bit depth : 8 bits
Scan type : Progressive
Bits/(Pixel*Frame) : 0.136
Stream size : 1.90 GiB (94%)
Title : Cold Comes The Night 2014 BDRip 720p AAC x264 - /*
Writing library : x264 core 138 r2358 9e941d1
Encoded date : UTC 2014-06-12 00:54:47
Tagged date : UTC 2014-06-14 03:16:41
Color primaries : BT.709
Transfer characteristics : BT.709
Matrix coefficients : BT.709
Trailer
[video=http://www.youtube.com/watch?v=sbLdtISSaL8]
Description
A struggling motel owner and her daughter are taken hostage by a nearly blind
career criminal to be his eyes as he attempts to retrieve his cash package from
a crooked cop.
Cast
Alice Eve ... Chloe
Bryan Cranston ... Topo
Logan Marshall-Green ... Billy
Ursula Parker ... Sophia
Leo Fitzpatrick ... Donnie
Erin Cummings ... Amber
Robin Taylor ... Quincy (as Robin Lord Taylor)
Sarah Sokolovic ... Gwen
Marceline Hugot ... Denise
Stephen Sheffer ... Jacques
Robert Prescott ... Detective McKenney
Ashlie Atkinson ... Social Worker
Dylan Chalfy ... Police Officer
Horny Horny Horny Duck ... Mr. Jones
Screenshots











Greetz
LEGi0N | FraMeSToR | greyshadow | westy1983 | Ripwyn | whitestag | BHD
WE WILL REBUILD | WE WILL RISE | WE ARE BEYOND YOUR IMAGINATION
Opening delayed, expected June.
Encoders Comments
You can transfer this to other sites but you must keep everything the way it is, if you can't
or site won't let you then please don't upload there.
Encoded for Android OS
Tested on Kindle Fire HD, HTC One X, HTC Desire X,
Arnova 10B G3, Google Chromebook, irulu 10.1, PC, WDHDTV Live etc..


Buy Premium Account and Download it at High Speed Before They Get Deleted

If you like My contribution Then Please support me by getting an premium account



Download link:
RapidGator:
http://rapidgator.net/file/d84e8c06be6496c1d8c28368257c7e9a/xycnj.Cold.Comes.The.Night.2013.BDRip.720p.AAC.x264..tbl3t.part1.rar.html
http://rapidgator.net/file/74456c7f2221192bd84422ba222a42a3/xycnj.Cold.Comes.The.Night.2013.BDRip.720p.AAC.x264..tbl3t.part2.rar.html

Uploaded:
http://uploaded.net/file/ivq4ka60/xycnj.Cold.Comes.The.Night.2013.BDRip.720p.AAC.x264..tbl3t.part1.rar
http://uploaded.net/file/lw7yi7oc/xycnj.Cold.Comes.The.Night.2013.BDRip.720p.AAC.x264..tbl3t.part2.rar

OBoom:
https://www.oboom.com/OF0BEARQ/xycnj.Cold.Comes.The.Night.2013.BDRip.720p.AAC.x264..tbl3t.part1.rar
https://www.oboom.com/Z0HQ4STI/xycnj.Cold.Comes.The.Night.2013.BDRip.720p.AAC.x264..tbl3t.part2.rar

Uploadable:
http://www.uploadable.ch/file/djU8cZAfH8Qc/xycnj.Cold.Comes.The.Night.2013.BDRip.720p.AAC.x264..tbl3t.part1.rar
http://www.uploadable.ch/file/zWfnSfeCspGT/xycnj.Cold.Comes.The.Night.2013.BDRip.720p.AAC.x264..tbl3t.part2.rar

Links are Interchangeable - No Password - Single Extraction

Sponsored High Speed Downloads
5602 dl's @ 3945 KB/s
Download Now [Full Version]
8150 dl's @ 3621 KB/s
Download Link 1 - Fast Download
9763 dl's @ 3227 KB/s
Download Mirror - Direct Download



Search More...
Cold Comes The Night 2013 BDRip 720p AAC x264 - t@bl3t

Search free ebooks in ebookee.com!


Links
Download this book

No active download links here?
Please check the description for download links if any or do a search to find alternative books.


Related Books


Comments

No comments for "Cold Comes The Night 2013 BDRip 720p AAC x264 - t@bl3t".


    Add Your Comments
    1. Download links and password may be in the description section, read description carefully!
    2. Do a search to find mirrors if no download links or dead links.
    Back to Top