Coursera - Social Network Analysis (University of Michigan)

Category: Tutorial

Tag: Database/SQL


Posted on 2019-05-21, by nokia241186.

Description


1905161529550117.jpg

Coursera - Social Network Analysis (University of Michigan)
WEBRip | English | MP4 + PDF slides | 960 x 540 | AVC ~88.4 kbps | 30 fps
AAC | 127 Kbps | 44.1 KHz | 2 channels | Subs: English (.srt) | ~10 hours | 1.01 GB
Genre: eLearning Video / Access and Affordability, MOOC
Professor Lada Adamic created the Social Network Analysis MOOC to instruct a diverse audience in a practical way to make sense of the structure and evolution of social networks. This course draws from a broad array of disciplines including sociology, mathematics, computer science, economics and physics in its online interactive demonstrations and hands-on analysis.



The online classes utilize Gephi, NetLogo and R tools to cover network theory, analysis and application in order to help learners observe and understand different networks as well as their structures. This approach is intended to help learners build an intuition for the structure and evolution of social networks and identify important nodes or hidden community structures as a part of in-depth analysis, discovering new ways to decipher the communities and networks that surround them through the theories and practices applied throughout the course. To date, this course has reached over 210,000 global learners.

General
Complete name : 03_2C_Advanced_version-_Models_of_network_growth_25-28.mp4
Format : MPEG-4
Format profile : Base Media
Codec ID : isom (isom/iso2/avc1/mp41)
File size : 40.6 MiB
Duration : 25 min 28 s
Overall bit rate mode : Variable
Overall bit rate : 223 kb/s
Encoded date : UTC 1970-01-01 00:00:00
Tagged date : UTC 1970-01-01 00:00:00
Writing application : Lavf53.29.100

Video
ID : 1
Format : AVC
Format/Info : Advanced Video Codec
Format profile : High@L3.1
Format settings : CABAC / 4 Ref Frames
Format settings, CABAC : Yes
Format settings, RefFrames : 4 frames
Codec ID : avc1
Codec ID/Info : Advanced Video Coding
Duration : 25 min 28 s
Bit rate : 88.4 kb/s
Width : 960 pixels
Height : 540 pixels
Display aspect ratio : 16:9
Frame rate mode : Constant
Frame rate : 30.000 FPS
Color space : YUV
Chroma subsampling : 4:2:0
Bit depth : 8 bits
Scan type : Progressive
Bits/(Pixel*Frame) : 0.006
Stream size : 16.1 MiB (40%)
Writing library : x264 core 120 r2120 0c7dab9
Encoding settings : cabac=1 / ref=3 / deblock=1:0:0 / analyse=0x3:0x113 / me=hex / subme=7 / psy=1 / psy_rd=1.00:0.00 / mixed_ref=1 / me_range=16 / chroma_me=1 / trellis=1 / 8x8dct=1 / cqm=0 / deadzone=21,11 / fast_pskip=1 / chroma_qp_offset=-2 / threads=12 / sliced_threads=0 / nr=0 / decimate=1 / interlaced=0 / bluray_compat=0 / constrained_intra=0 / bframes=3 / b_pyramid=2 / b_adapt=1 / b_bias=0 / direct=1 / weightb=1 / open_gop=0 / weightp=2 / keyint=250 / keyint_min=25 / scenecut=40 / intra_refresh=0 / rc_lookahead=40 / rc=crf / mbtree=1 / crf=28.0 / qcomp=0.60 / qpmin=0 / qpmax=69 / qpstep=4 / ip_ratio=1.40 / aq=1:1.00
Encoded date : UTC 1970-01-01 00:00:00
Tagged date : UTC 1970-01-01 00:00:00

Audio
ID : 2
Format : AAC
Format/Info : Advanced Audio Codec
Format profile : LC
Codec ID : mp4a-40-2
Duration : 25 min 28 s
Bit rate mode : Variable
Bit rate : 127 kb/s
Maximum bit rate : 128 kb/s
Channel(s) : 2 channels
Channel positions : Front: L R
Sampling rate : 44.1 kHz
Frame rate : 43.066 FPS (1024 SPF)
Compression mode : Lossy
Stream size : 23.1 MiB (57%)
Default : Yes
Alternate group : 1
Encoded date : UTC 1970-01-01 00:00:00
Tagged date : UTC 1970-01-01 00:00:00

Screenshots

1905161529560107.jpg

1905161529570119.jpg

1905161529590122.jpg
DOWNLOAD
(Buy premium account for maximum speed and resuming ability)







Sponsored High Speed Downloads
7023 dl's @ 2587 KB/s
Download Now [Full Version]
6899 dl's @ 2030 KB/s
Download Link 1 - Fast Download
9938 dl's @ 3239 KB/s
Download Mirror - Direct Download



Search More...
Coursera - Social Network Analysis (University of Michigan)

Search free ebooks in ebookee.com!


Related Archive Books

Archive Books related to "Coursera - Social Network Analysis (University of Michigan)":



Links
Download this book

No active download links here?
Please check the description for download links if any or do a search to find alternative books.


Related Books


Comments

No comments for "Coursera - Social Network Analysis (University of Michigan)".


    Add Your Comments
    1. Download links and password may be in the description section, read description carefully!
    2. Do a search to find mirrors if no download links or dead links.
    Back to Top