Create a Sliding Tabbed Panel with jQuery

Category: Technical

Tag: Programming


Posted on 2014-05-02. By anonymous.

Description


Create a Sliding Tabbed Panel with jQuery
MOV | AVC 961kbps | English | 960x600 | 30fps | 59 mins | AAC stereo 96kbps | 260 MB
Genre: Video Training

A tabbed panel interface is a classic feature to incorporate in your website design, but they're usually static elements. This course shows how to build a dynamic sliding tabbed panel from scratch using a combination of HTML, CSS, and jQuery. Author Chris Converse leads you through the process from start to finish, from building the containers to styling the text, tab, and panels, and adding click events to make the tabs interactive. He also shows how to incorporate progressive enhancement techniques, so visitors who don't have JavaScript, for example, can still access the content.

Topics include:
Creating the main panel and tab containers
Adding content to the containers
Adding CSS styles to the text and tabs
Adding the jQuery $(document).ready() function
Assigning click events to the tabs
Setting an autostart on page load
Creating custom graphics for the panels
Assigning custom classes to the HTML elements
Reassigning CSS rules with JavaScript

Introduction 3m 41s
Previewing the final project 1m 35s
About the exercise files 1m 26s
Beginning the project 40s

1. Creating the HTML Containers 5m 49s
Creating the main panel and the tab containers 2m 10s
Creating the HTML containers for the tabs 56s
Creating the HTML containers for the panels 1m 27s
Adding content to the containers 1m 16s

2. Styling the Tabs and Panels 14m 13s
Adding CSS styles to the text 1m 34s
Adding CSS styles to the tabs 2m 53s
Styling the first and last tabs 6m 0s
Styling the main container and the panels 3m 46s

3. Writing the JavaScript and jQuery 20m 58s
Adding the jQuery document ready 2m 28s
Lining up the panels in a row 4m 29s
Assigning click events to the tabs 1m 50s
Animating the panels based on the tab clicked 6m 18s
Assigning a selected state to the tab clicked 2m 21s
Setting an autostart on page load 3m 32s

4. Creating Custom Graphics 1m 41s
Creating custom graphics for the panels 1m 41s

5. Customizing the Panel Styles 5m 37s
Assigning custom classes to the HTML elements 1m 5s
Adding CSS rules for the video panel 3m 27s
Adding CSS rules for remaining panels 1m 5s

6. Adding Progressive Enhancement Techniques 5m 17s
Removing CSS rules that hide elements 2m 18s
Reassigning CSS rules with JavaScript 2m 59s

Conclusion 1m 15s
Where to go from here 1m 15s

Mediainfo:

Format : QuickTime
Format/Info : Original Apple specifications
File size : 22.7 MiB
Duration : 2mn 59s
Overall bit rate : 1 062 Kbps
Encoded date : UTC 2012-09-14 22:42:54
Tagged date : UTC 2012-09-14 22:42:54
Writing library : Apple QuickTime
Copyright : lynda.com
Video #1
ID : 1
Format : AVC
Format/Info : Advanced Video Codec
Format profile : Main@L3.1
Format settings, CABAC : Yes
Format settings, ReFrames : 3 frames
Codec ID : avc1
Codec ID/Info : Advanced Video Coding
Duration : 2mn 59s
Bit rate mode : Variable
Bit rate : 961 Kbps
Width : 960 pixels
Height : 600 pixels
Display aspect ratio : 1.600
Frame rate mode : Constant
Frame rate : 30.000 fps
Standard : PAL
Resolution : 24 bits
Colorimetry : 4:2:0
Scan type : Progressive
Bits/(Pixel*Frame) : 0.056
Stream size : 20.6 MiB (91%)
Encoded date : UTC 2012-09-14 22:42:54
Tagged date : UTC 2012-09-14 22:42:54
Audio #2
ID : 2
Format : AAC
Format/Info : Advanced Audio Codec
Format version : Version 4
Format profile : LC
Format settings, SBR : No
Codec ID : 40
Duration : 2mn 59s
Bit rate mode : Variable
Bit rate : 96.0 Kbps
Maximum bit rate : 99.9 Kbps
Channel(s) : 2 channels
Channel positions : L R
Sampling rate : 48.0 KHz
Resolution : 16 bits
Stream size : 2.06 MiB (9%)
Encoded date : UTC 2012-09-14 22:42:54
Tagged date : UTC 2012-09-14 22:42:54






No mirrors please

Visit my blog, click here


Sponsored High Speed Downloads
9627 dl's @ 2299 KB/s
Download Now [Full Version]
8732 dl's @ 3614 KB/s
Download Link 1 - Fast Download
8877 dl's @ 3127 KB/s
Download Mirror - Direct Download



Search More...
Create a Sliding Tabbed Panel with jQuery

Search free ebooks in ebookee.com!


Links
Download this book

No active download links here?
Please check the description for download links if any or do a search to find alternative books.


Related Books


Comments

No comments for "Create a Sliding Tabbed Panel with jQuery".


    Add Your Comments
    1. Download links and password may be in the description section, read description carefully!
    2. Do a search to find mirrors if no download links or dead links.
    Back to Top