Das Pferd - Ao Vivo (1989)

Category: Lyrics


Posted on 2019-04-15, by Germany2020.

Description


1904150654140100.jpg



Artist: Das Pferd
Title: Ao Vivo
Year Of Release: 1989
Label: veraBra records[veraBra No.29]
Genre: Jazz Rock, Fusion
Quality: FLAC (image + .cue,log,scans)
Total Time: 49:25
Total Size: 320 MB(+3%)




Tracklist
1. The First Kiss 8:04
2. Radioparty 7:41
3. The New System 5:46
4. See You Tommorow 4:05
5. Anything 13:41
6. She's Not So Expensive 3:00
7. Die Woyzzecks 6:21
personnel :
Drums - Kurt Billker
Guitar - Markus Wienstroer
Keyboards - Tobias Becker
Saxophone, Bass Clarinet - Wolfgang Schmidtke
Trumpet - Randy Brecker
Bass,Produced by - Jan Kazda
1904150654140101.jpg
Exact Audio Copy V1.3 from 2. September 2016
Отчёт EAC об извлечении, выполненном 13. апреля 2019, 8:59
Das Pferd / Ao Vivo - 1989
Дисковод: PIONEER BD-RW BDR-TD03 Adapter: 1 ID: 0
Режим чтения : Достоверность
Использование точного потока : Да
Отключение кэша аудио : Да
Использование указателей C2 : Нет
Коррекция смещения при чтении : 667
Способность читать области Lead-in и Lead-out : Нет
Заполнение пропущенных сэмплов тишиной : Да
Удаление блоков с тишиной в начале и конце : Нет[/center]

При вычислениях CRC использовались нулевые сэмплы : Да
Интерфейс : Встроенный Win32-интерфейс для Win NT/2000
Выходной формат : Пользовательский кодировщик
Выбранный битрейт : 128 kBit/s
Качество : Высокий
Добавление ID3-тега : Нет
Утилита сжатия : C:\Program Files (x86)\Exact Audio Copy\Flac\flac.exe
Дополнительные параметры : -V -8 -T "Date=%year%" -T "Genre=%genre%" %source%
TOC извлечённого CD
Трек | Старт | Длительность | Начальный сектор | Конечный сектор
---------------------------------------------------------------------
1 | 0:00.00 | 8:04.72 | 0 | 36371
2 | 8:04.72 | 7:42.15 | 36372 | 71036
3 | 15:47.12 | 5:45.53 | 71037 | 96964
4 | 21:32.65 | 4:08.12 | 96965 | 115576
5 | 25:41.02 | 13:43.00 | 115577 | 177301
6 | 39:24.02 | 3:41.38 | 177302 | 193914
7 | 43:05.40 | 6:20.65 | 193915 | 222479
Характеристики диапазона извлечения и сообщения об ошибках
Выбранный диапазон
Имя файла I:\Rip\Das Pferd - Ao Vivo - 1989\Das Pferd - Ao Vivo - 1989.wav
Пиковый уровень 99.5 %
Скорость извлечения 4.3 X
Качество диапазона 100.0 %
CRC теста 31B35E78
CRC копии 31B35E78
Копирование... OK
Ошибок не произошло

AccurateRip: сводка

Трек 1 : извлечено точно (доверие 6) C590292 (AR v2)
Трек 2 : извлечено точно (доверие 6) [5A62B454] (AR v2)
Трек 3 : извлечено точно (доверие 6) [CC0931F2] (AR v2)
Трек 4 : извлечено точно (доверие 6) [CC5E458C] (AR v2)
Трек 5 : извлечено точно (доверие 6) [C8304DE8] (AR v2)
Трек 6 : извлечено точно (доверие 6) [70283B5F] (AR v2)
Трек 7 : извлечено точно (доверие 6) [1492A427] (AR v2)

Все треки извлечены точно
Конец отчёта
---- CUETools DB Plugin V2.1.6
[CTDB TOCID: s5yLdxbXaZ6ikFfNLpY0H9CXMAI-] found
Submit result: s5yLdxbXaZ6ikFfNLpY0H9CXMAI- has been confirmed
Track | CTDB Status
1 | (9/9) Accurately ripped
2 | (9/9) Accurately ripped
3 | (8/9) Accurately ripped
4 | (9/9) Accurately ripped
5 | (9/9) Accurately ripped
6 | (9/9) Accurately ripped
7 | (9/9) Accurately ripped
==== Контрольная сумма отчёта C726275EC7FD731A4892FA1B1CCFE16A275E19CBC17203FF2666F79E3BCBA94D ====




uploadgig.png
https://uploadgig.com/file/download/ac76e46b7f70D204/u38t4.Das.Pferd..Ao.Vivo.1989.rar
rapidgator.png
https://rapidgator.net/file/1119f4a09b46989398daf4726dd278c7/u38t4.Das.Pferd..Ao.Vivo.1989.rar
nitroflare.png
http://nitroflare.com/view/FFCE101653C1E39/u38t4.Das.Pferd..Ao.Vivo.1989.rar


Sponsored High Speed Downloads
5578 dl's @ 3323 KB/s
Download Now [Full Version]
5100 dl's @ 2665 KB/s
Download Link 1 - Fast Download
8339 dl's @ 3002 KB/s
Download Mirror - Direct Download



Search More...
Das Pferd - Ao Vivo (1989)

Search free ebooks in ebookee.com!


Links
Download this book

No active download links here?
Please check the description for download links if any or do a search to find alternative books.


Related Books


Comments

No comments for "Das Pferd - Ao Vivo (1989)".


    Add Your Comments
    1. Download links and password may be in the description section, read description carefully!
    2. Do a search to find mirrors if no download links or dead links.
    Back to Top