Das Pferd - Blue Turns To Grey (1991)

Category: Lyrics


Posted on 2019-04-15, by Germany2020.

Description


=
1904150654140109.jpg



Artist: Das Pferd
Title: Blue Turns To Grey
Year Of Release: 1991
Label: veraBra Records[vBr 2065 2]
Genre: Free Jazz, Avant Garde
Quality: FLAC (image + .cue,log,scans)
Total Time: 51:27
Total Size: 300 MB(+3%)




Tracklist
1. Something Happens To The Sun 4:53
2. What's Next 4:08
3. Three Secrets 3:57
4. The Z-song 5:59
5. Blue Turns To Grey 2:55
6. Espelhos D'agua 5:07
7. Don't Try To Sell A Horse 0:56
8. The Real Blues 2:56
9. View To Other Side 4:11
10. No Regret 3:12
11. Estrango 3:14
12. I'd Like To Be An Italian 4:06
13. Twenty Years Later 2:52
14. Behind The Walls 2:55
personnel :
Accordion - Lydie Auvray
Drums - Kurt Billker
Electric Guitar, Acoustic Guitar, Banjo - Markus Wienstroer
Keyboards, Piano - Tobias Becker
Percussion - Nicky Marrero
Soprano Saxophone, Tenor Saxophone, Bass Clarinet, Producer - Wolfgang Schmidtke
Vocals - Anabela Duarte
Bass, Producer - Jan Kazda
1904150654140098.jpg
Exact Audio Copy V1.3 from 2. September 2016
Отчёт EAC об извлечении, выполненном 13. апреля 2019, 10:07
Das Pferd / Blue TurnsTo Grey - 1991
Дисковод: PIONEER BD-RW BDR-TD03 Adapter: 1 ID: 0
Режим чтения : Достоверность
Использование точного потока : Да
Отключение кэша аудио : Да
Использование указателей C2 : Нет
Коррекция смещения при чтении : 667
Способность читать области Lead-in и Lead-out : Нет
Заполнение пропущенных сэмплов тишиной : Да
Удаление блоков с тишиной в начале и конце : Нет[/center]

При вычислениях CRC использовались нулевые сэмплы : Да
Интерфейс : Встроенный Win32-интерфейс для Win NT/2000
Выходной формат : Пользовательский кодировщик
Выбранный битрейт : 128 kBit/s
Качество : Высокий
Добавление ID3-тега : Нет
Утилита сжатия : C:\Program Files (x86)\Exact Audio Copy\Flac\flac.exe
Дополнительные параметры : -V -8 -T "Date=%year%" -T "Genre=%genre%" %source%
TOC извлечённого CD
Трек | Старт | Длительность | Начальный сектор | Конечный сектор
---------------------------------------------------------------------
1 | 0:00.33 | 4:53.60 | 33 | 22067
2 | 4:54.18 | 4:08.10 | 22068 | 40677
3 | 9:02.28 | 3:57.35 | 40678 | 58487
4 | 12:59.63 | 5:59.37 | 58488 | 85449
5 | 18:59.25 | 2:55.00 | 85450 | 98574
6 | 21:54.25 | 5:07.13 | 98575 | 121612
7 | 27:01.38 | 0:56.50 | 121613 | 125862
8 | 27:58.13 | 2:56.62 | 125863 | 139124
9 | 30:55.00 | 4:11.08 | 139125 | 157957
10 | 35:06.08 | 3:12.02 | 157958 | 172359
11 | 38:18.10 | 3:14.40 | 172360 | 186949
12 | 41:32.50 | 4:06.58 | 186950 | 205457
13 | 45:39.33 | 2:52.57 | 205458 | 218414
14 | 48:32.15 | 2:55.50 | 218415 | 231589
Характеристики диапазона извлечения и сообщения об ошибках
Выбранный диапазон
Имя файла I:\Rip\Das Pferd - Blue TurnsTo Grey - 1991\Das Pferd - Blue TurnsTo Grey - 1991.wav
Пиковый уровень 100.0 %
Скорость извлечения 4.3 X
Качество диапазона 100.0 %
CRC теста ABB2845C
CRC копии ABB2845C
Копирование... OK
Ошибок не произошло

AccurateRip: сводка

Трек 1 : извлечено точно (доверие 3) [CDCA9977] (AR v2)
Трек 2 : извлечено точно (доверие 3) [EDB13246] (AR v2)
Трек 3 : извлечено точно (доверие 3) [EB293150] (AR v2)
Трек 4 : извлечено точно (доверие 3) [08C4FCBE] (AR v2)
Трек 5 : извлечено точно (доверие 3) [F41BF189] (AR v2)
Трек 6 : извлечено точно (доверие 3) [D0A7CD85] (AR v2)
Трек 7 : извлечено точно (доверие 3) [176E8CEE] (AR v2)
Трек 8 : извлечено точно (доверие 3) [9D43C4A9] (AR v2)
Трек 9 : извлечено точно (доверие 3) A3F4A05 (AR v2)
Трек 10 : извлечено точно (доверие 3) [0F0A415F] (AR v2)
Трек 11 : извлечено точно (доверие 3) [282B18F4] (AR v2)
Трек 12 : извлечено точно (доверие 3) [2C5533E8] (AR v2)
Трек 13 : извлечено точно (доверие 3) [F1A9C2A3] (AR v2)
Трек 14 : извлечено точно (доверие 3) [822FCF0B] (AR v2)

Все треки извлечены точно
Конец отчёта
---- CUETools DB Plugin V2.1.6
[CTDB TOCID: KMVGwXvkAKarG9gDAnCz6VvPQ.s-] found
Submit result: KMVGwXvkAKarG9gDAnCz6VvPQ.s- has been confirmed
Track | CTDB Status
1 | (4/4) Accurately ripped
2 | (4/4) Accurately ripped
3 | (4/4) Accurately ripped
4 | (4/4) Accurately ripped
5 | (4/4) Accurately ripped
6 | (4/4) Accurately ripped
7 | (4/4) Accurately ripped
8 | (4/4) Accurately ripped
9 | (4/4) Accurately ripped
10 | (4/4) Accurately ripped
11 | (4/4) Accurately ripped
12 | (4/4) Accurately ripped
13 | (4/4) Accurately ripped
14 | (4/4) Accurately ripped
==== Контрольная сумма отчёта 09CB2CBDD97CA25576203D994868B1C7B66F55135BBA4BF7790F64C525CC4145 ====




uploadgig.png
https://uploadgig.com/file/download/C396fe2956afdA32/3afry.Das.Pferd..Blue.Turns.To.Grey.1991.rar
rapidgator.png
https://rapidgator.net/file/0c60e4f30dcbe9fcb1a43562556c7b57/3afry.Das.Pferd..Blue.Turns.To.Grey.1991.rar
nitroflare.png
http://nitroflare.com/view/996920974501B04/3afry.Das.Pferd..Blue.Turns.To.Grey.1991.rar


Sponsored High Speed Downloads
5820 dl's @ 3092 KB/s
Download Now [Full Version]
6143 dl's @ 2522 KB/s
Download Link 1 - Fast Download
6886 dl's @ 2816 KB/s
Download Mirror - Direct Download



Search More...
Das Pferd - Blue Turns To Grey (1991)

Search free ebooks in ebookee.com!


Links
Download this book

No active download links here?
Please check the description for download links if any or do a search to find alternative books.


Related Books


Comments

No comments for "Das Pferd - Blue Turns To Grey (1991)".


    Add Your Comments
    1. Download links and password may be in the description section, read description carefully!
    2. Do a search to find mirrors if no download links or dead links.
    Back to Top