Das Pferd - Das Pferd (1987)

Category: Lyrics


Posted on 2019-04-15, by Germany2020.

Description


1904150654150106.jpg



Artist: Das Pferd
Title: Das Pferd
Year Of Release: 1987
Label: ITM Records[ ITM 979016]
Genre: Jazz Rock, Fusion
Quality: FLAC (image + .cue,log,scans)
Total Time: 42:02
Total Size: 282 MB(+3%)




Tracklist
1. Dynamo Dresden 1:59
2. Cry Of Love 5:25
3. Sie Kommen 3:27
4. What Do You Think About Love 2:54
5. No. 13 2:43
6. Fremde Länder Fremde Sitten 2:51
7. Die Woyzzeck's 4:07
8. Tut Tut Here We Come 2:19
9. Prima 3:46
10. Ja/Nein 3:29
11. Komm 1:10
12. King Of The Nervous 4:16
13. Auf Reisen 2:35
CD contains pre-emphasis
personnel :
Bass Clarinet, Keyboards, Flute, Vocoder - Wolfgang Schmidtke
Bass, Keyboards - Jan Kazda (tracks: 4, 11)
Cello - Tom Cora (tracks: 3, 6)
Drums - Diethard Stein
Guitars - Markus Wienstroer
Keyboards - Tobias Becker ( (tracks: 13)
Keyboards, Sequenzers - Suppi Huhn
Marimba - Matthias von Welk (tracks: 12)
Oboe - Tobias Becker (tracks: 12, 13)
Percussion - A. "Poncho" Valdez (tracks: 1, 2, 6 to 9)
Percussion - Matthias von Welk (tracks: 13)
Saxophone - Klaus Bernatzki (tracks: 1, 10)
Trumpet - Reiner Winterschladen (tracks: 1, 7, 9)
Violin - Markus Wienstroer (tracks: 13)
Voice - Jan Kazda (tracks: 11), Sabine Sabine (tracks: 2), Tom Mega (tracks: 12), Wolfgang Schmidtke (tracks: 11)
1904150654150099.jpg
Exact Audio Copy V1.3 from 2. September 2016
Отчёт EAC об извлечении, выполненном 13. апреля 2019, 8:22
Das Pferd / Das Pferd - 1987
Дисковод: PIONEER BD-RW BDR-TD03 Adapter: 1 ID: 0
Режим чтения : Достоверность
Использование точного потока : Да
Отключение кэша аудио : Да
Использование указателей C2 : Нет
Коррекция смещения при чтении : 667
Способность читать области Lead-in и Lead-out : Нет
Заполнение пропущенных сэмплов тишиной : Да
Удаление блоков с тишиной в начале и конце : Нет[/center]

При вычислениях CRC использовались нулевые сэмплы : Да
Интерфейс : Встроенный Win32-интерфейс для Win NT/2000
Выходной формат : Пользовательский кодировщик
Выбранный битрейт : 128 kBit/s
Качество : Высокий
Добавление ID3-тега : Нет
Утилита сжатия : C:\Program Files (x86)\Exact Audio Copy\Flac\flac.exe
Дополнительные параметры : -V -8 -T "Date=%year%" -T "Genre=%genre%" %source%
TOC извлечённого CD
Трек | Старт | Длительность | Начальный сектор | Конечный сектор
---------------------------------------------------------------------
1 | 0:00.00 | 2:05.68 | 0 | 9442
2 | 2:05.68 | 5:28.60 | 9443 | 34102
3 | 7:34.53 | 3:31.62 | 34103 | 49989
4 | 11:06.40 | 3:00.55 | 49990 | 63544
5 | 14:07.20 | 2:50.08 | 63545 | 76302
6 | 16:57.28 | 2:55.15 | 76303 | 89442
7 | 19:52.43 | 4:11.25 | 89443 | 108292
8 | 24:03.68 | 2:23.70 | 108293 | 119087
9 | 26:27.63 | 3:51.67 | 119088 | 136479
10 | 30:19.55 | 3:32.30 | 136480 | 152409
11 | 33:52.10 | 1:14.70 | 152410 | 158029
12 | 35:07.05 | 4:18.18 | 158030 | 177397
13 | 39:25.23 | 2:37.40 | 177398 | 189212
Характеристики диапазона извлечения и сообщения об ошибках
Выбранный диапазон
Имя файла I:\Rip\Das Pferd - Das Pferd - 1987\Das Pferd - Das Pferd - 1987.wav
Пиковый уровень 100.0 %
Скорость извлечения 4.2 X
Качество диапазона 100.0 %
CRC теста 0A6947D9
CRC копии 0A6947D9
Копирование... OK
Ошибок не произошло

AccurateRip: сводка

Трек 1 : извлечено точно (доверие 2) [F2C7BC47] (AR v2)
Трек 2 : извлечено точно (доверие 2) [18735402] (AR v2)
Трек 3 : извлечено точно (доверие 2) [974C129A] (AR v2)
Трек 4 : извлечено точно (доверие 2) [F93992E4] (AR v2)
Трек 5 : извлечено точно (доверие 2) [900E1490] (AR v2)
Трек 6 : извлечено точно (доверие 2) [80AABD54] (AR v2)
Трек 7 : извлечено точно (доверие 2) [4D8CCBEC] (AR v2)
Трек 8 : извлечено точно (доверие 2) [0B802632] (AR v2)
Трек 9 : извлечено точно (доверие 2) [3165D542] (AR v2)
Трек 10 : извлечено точно (доверие 2) [08AEAE11] (AR v2)
Трек 11 : извлечено точно (доверие 2) [0459EC8B] (AR v2)
Трек 12 : извлечено точно (доверие 2) [0A69DBCA] (AR v2)
Трек 13 : извлечено точно (доверие 2) [AAAA3460] (AR v2)

Все треки извлечены точно
Конец отчёта
---- CUETools DB Plugin V2.1.6
[CTDB TOCID: gbyp2SDDG5DR2bGEIdI_6I1I7jI-] found
Submit result: gbyp2SDDG5DR2bGEIdI_6I1I7jI- has been confirmed
Track | CTDB Status
1 | (4/4) Accurately ripped
2 | (4/4) Accurately ripped
3 | (4/4) Accurately ripped
4 | (4/4) Accurately ripped
5 | (4/4) Accurately ripped
6 | (4/4) Accurately ripped
7 | (4/4) Accurately ripped
8 | (4/4) Accurately ripped
9 | (4/4) Accurately ripped
10 | (4/4) Accurately ripped
11 | (4/4) Accurately ripped
12 | (4/4) Accurately ripped
13 | (4/4) Accurately ripped
==== Контрольная сумма отчёта 958A26CB11496AA80790B649E3A6852F532D9251DD834D5B38CE8D79CD4AB2EE ====




uploadgig.png
https://uploadgig.com/file/download/791b3b99ff56b3E9/xqc02.Das.Pferd..Das.Pferd.1987.rar
rapidgator.png
https://rapidgator.net/file/f2eb182477dff53a981500cfd90cb688/xqc02.Das.Pferd..Das.Pferd.1987.rar
nitroflare.png
http://nitroflare.com/view/CACABC6F1BE0760/xqc02.Das.Pferd..Das.Pferd.1987.rar


Sponsored High Speed Downloads
8466 dl's @ 3375 KB/s
Download Now [Full Version]
7920 dl's @ 2869 KB/s
Download Link 1 - Fast Download
6936 dl's @ 3378 KB/s
Download Mirror - Direct Download



Search More...
Das Pferd - Das Pferd (1987)

Search free ebooks in ebookee.com!


Links
Download this book

No active download links here?
Please check the description for download links if any or do a search to find alternative books.


Related Books


Comments

No comments for "Das Pferd - Das Pferd (1987)".


    Add Your Comments
    1. Download links and password may be in the description section, read description carefully!
    2. Do a search to find mirrors if no download links or dead links.
    Back to Top