Erik Truffaz - The Mask (2000) CD Rip

Category: Lyrics


Posted on 2019-04-15, by Germany2020.

Description


1904150654210115.jpg



Artist: Erik Truffaz
Title: The Mask
Year Of Release: 2000
Label: Blue Note[527472 2]
Genre: Jazz, Fusion
Quality: FLAC (tracks + .cue,log,scans)
Total Time: 64:21
Total Size: 375 MB(+3%)




Tracklist
01. Sweet Mercy (2:07)
02. Arroyo (6:26)
03. More (6:10)
04. Less (3:55)
05. No Choice (7:09)
06. Mask (4:15)
07. Dawn (5:45)
08. Betty (4:14)
09. Bending New Corners (8:10)
10. Minaret (5:57)
11. And (10:13)
personnel :
Erik Truffaz - Trumpet
Marc Erbetta - Percussion, Drums
Marcello Giuliani - Bass (Electric), Bass (Acoustic)
Patrick Muller - Piano,Fender Rhodes
1904150654220109.jpg
Exact Audio Copy V0.99 prebeta 4 from 23. January 2008
EAC extraction logfile from 28. July 2009, 4:30
Erik Truffaz / The Mask
Used drive : TSSTcorpDVD+-RW TS-L632H Adapter: 0 ID: 0
Read mode : Secure
Utilize accurate stream : Yes
Defeat audio cache : Yes
Make use of C2 pointers : No
Read offset correction : 6
Overread into Lead-In and Lead-Out : No
Fill up missing offset samples with silence : Yes
Delete leading and trailing silent blocks : No[/center]

Null samples used in CRC calculations : Yes
Used interface : Installed external ASPI interface
Gap handling : Appended to previous track
Used output format : User Defined Encoder
Selected bitrate : 128 kBit/s
Quality : High
Add ID3 tag : No
Command line compressor : C:\Program Files\Exact Audio Copy\flac.exe
Additional command line options : -V -8 -T "artist=%a" -T "title=%t" -T "album=%g" -T "date=%y" -T "tracknumber=%n" -T "genre=%m" %s
TOC of the extracted CD
Track | Start | Length | Start sector | End sector
---------------------------------------------------------
1 | 0:00.00 | 2:07.01 | 0 | 9525
2 | 2:07.01 | 6:26.01 | 9526 | 38476
3 | 8:33.02 | 6:10.00 | 38477 | 66226
4 | 14:43.02 | 3:55.00 | 66227 | 83851
5 | 18:38.02 | 7:09.00 | 83852 | 116026
6 | 25:47.02 | 4:15.00 | 116027 | 135151
7 | 30:02.02 | 5:45.00 | 135152 | 161026
8 | 35:47.02 | 4:14.00 | 161027 | 180076
9 | 40:01.02 | 8:10.00 | 180077 | 216826
10 | 48:11.02 | 5:57.00 | 216827 | 243601
11 | 54:08.02 | 10:12.74 | 243602 | 289575
Track 1
Filename C:\EACrips\Erik Truffaz - - The Mask\01 - Sweet Mercy .wav
Pre-gap length 0:00:02.00
Peak level 99.7 %
Track quality 100.0 %
Test CRC 677D8266
Copy CRC 677D8266
Accurately ripped (confidence 5) [C0FE176E]
Copy OK
Track 2
Filename C:\EACrips\Erik Truffaz - - The Mask\02 - Arroyo .wav
Pre-gap length 0:00:01.01
Peak level 99.7 %
Track quality 100.0 %
Test CRC 360F4E3B
Copy CRC 360F4E3B
Accurately ripped (confidence 5) [8B56C453]
Copy OK
Track 3
Filename C:\EACrips\Erik Truffaz - - The Mask\03 - More .wav
Pre-gap length 0:00:01.01
Peak level 99.8 %
Track quality 100.0 %
Test CRC 640E10EB
Copy CRC 640E10EB
Accurately ripped (confidence 5) [270FE57C]
Copy OK
Track 4
Filename C:\EACrips\Erik Truffaz - - The Mask\04 - Less .wav
Pre-gap length 0:00:02.00
Peak level 99.7 %
Track quality 100.0 %
Test CRC A237F4BC
Copy CRC A237F4BC
Accurately ripped (confidence 5) [4B59E892]
Copy OK
Track 5
Filename C:\EACrips\Erik Truffaz - - The Mask\05 - No Choice .wav
Pre-gap length 0:00:02.00
Peak level 100.0 %
Track quality 99.9 %
Test CRC FB98118C
Copy CRC FB98118C
Accurately ripped (confidence 5) [1CC66285]
Copy OK
Track 6
Filename C:\EACrips\Erik Truffaz - - The Mask\06 - The Mask .wav
Pre-gap length 0:00:02.00
Peak level 99.7 %
Track quality 99.9 %
Test CRC A271CF6B
Copy CRC A271CF6B
Accurately ripped (confidence 5) [F662617E]
Copy OK
Track 7
Filename C:\EACrips\Erik Truffaz - - The Mask\07 - The Dawn .wav
Pre-gap length 0:00:02.00
Peak level 100.0 %
Track quality 99.9 %
Test CRC 8BCDC6BF
Copy CRC 8BCDC6BF
Accurately ripped (confidence 5) [25770293]
Copy OK
Track 8
Filename C:\EACrips\Erik Truffaz - - The Mask\08 - Betty .wav
Pre-gap length 0:00:01.00
Peak level 89.5 %
Track quality 99.9 %
Test CRC 0BDFBCE1
Copy CRC 0BDFBCE1
Accurately ripped (confidence 5) [7420DBAB]
Copy OK
Track 9
Filename C:\EACrips\Erik Truffaz - - The Mask\09 - Bending New Corners .wav
Pre-gap length 0:00:02.00
Peak level 99.7 %
Track quality 100.0 %
Test CRC EFCF599B
Copy CRC EFCF599B
Accurately ripped (confidence 5) [4324F1E5]
Copy OK
Track 10
Filename C:\EACrips\Erik Truffaz - - The Mask\10 - Minaret .wav
Pre-gap length 0:00:02.00
Peak level 99.7 %
Track quality 100.0 %
Test CRC 2A8C2FE8
Copy CRC 2A8C2FE8
Accurately ripped (confidence 5) [591CA988]
Copy OK
Track 11
Filename C:\EACrips\Erik Truffaz - - The Mask\11 - And .wav
Pre-gap length 0:00:02.00
Peak level 99.7 %
Track quality 99.9 %
Test CRC BB41C9F3
Copy CRC BB41C9F3
Accurately ripped (confidence 5) [CB1AE09F]
Copy OK
All tracks accurately ripped
No errors occurred
End of status report




uploadgig.png
https://uploadgig.com/file/download/65812099e6EdfAa2/c9vg6.Erik.Truffaz..The.Mask.2000.CD.Rip.rar
rapidgator.png
https://rapidgator.net/file/932c4b24ab7a6ab7acb9d13012aa260a/c9vg6.Erik.Truffaz..The.Mask.2000.CD.Rip.rar
nitroflare.png
http://nitroflare.com/view/B2D6FAFB09D1D2F/c9vg6.Erik.Truffaz..The.Mask.2000.CD.Rip.rar


Sponsored High Speed Downloads
6655 dl's @ 2082 KB/s
Download Now [Full Version]
6473 dl's @ 3007 KB/s
Download Link 1 - Fast Download
8496 dl's @ 2094 KB/s
Download Mirror - Direct Download



Search More...
Erik Truffaz - The Mask (2000) CD Rip

Search free ebooks in ebookee.com!


Links
Download this book

No active download links here?
Please check the description for download links if any or do a search to find alternative books.


Related Books


Comments

No comments for "Erik Truffaz - The Mask (2000) CD Rip".


    Add Your Comments
    1. Download links and password may be in the description section, read description carefully!
    2. Do a search to find mirrors if no download links or dead links.
    Back to Top