Gambale, Donati, Fierabracci - Made in Australia (2007)

Category: Lyrics


Posted on 2019-04-15, by Germany2020.

Description


1904150654260105.jpg



Artist: Gambale, Donati, Fierabracci
Title: Made in Australia
Year Of Release: 2007
Label: Wombat Records[Wombat 8004]
Genre: Jazz, Fusion
Quality: FLAC (image + .cue,log)
Total Time: 74:58
Total Size: 584 MB(+3%)




Tracklist
1 The User 6:19
2 Little Charmer 8:08
3 Joey's Waltz 8:02
4 Yang 11:06
5 Sphere Of Influence 6:37
6 Mind Over 6:11
7 Alien Hip-Hop 12:01
8 A Little Something 16:59
This concert was captured live at the Evelyn Hotel in Melbourne, Australia on June 20th 2003
personnel :
Frank Gambale - Guitar
Virgil Donati - Drums
Ric Fierabracci - Bass
1904150654270111.jpg
Exact Audio Copy V0.99 prebeta 5 from 4. May 2009
EAC extraction logfile from 14. October 2009, 15:22
Gambale-Donati-Fierabracci / Made In Australia
Used drive : Optiarc DVD+-RW AD-5540A Adapter: 1 ID: 0
Read mode : Secure
Utilize accurate stream : Yes
Defeat audio cache : Yes
Make use of C2 pointers : No
Read offset correction : 48
Overread into Lead-In and Lead-Out : No
Fill up missing offset samples with silence : Yes
Delete leading and trailing silent blocks : No[/center]

Null samples used in CRC calculations : No
Used interface : Installed external ASPI interface
Used output format : Internal WAV Routines
Sample format : 44.100 Hz; 16 Bit; Stereo
TOC of the extracted CD
Track | Start | Length | Start sector | End sector
---------------------------------------------------------
1 | 0:00.00 | 6:19.25 | 0 | 28449
2 | 6:19.25 | 8:08.13 | 28450 | 65062
3 | 14:27.38 | 8:02.65 | 65063 | 101277
4 | 22:30.28 | 11:06.01 | 101278 | 151228
5 | 33:36.29 | 6:37.73 | 151229 | 181076
6 | 40:14.27 | 6:11.00 | 181077 | 208901
7 | 46:25.27 | 11:33.57 | 208902 | 260933
8 | 57:59.09 | 16:59.26 | 260934 | 337384
Range status and errors
Selected range
Filename D:\Gambale-Donati-Fierbracci 2003 - Made In Australia\cdimage.wav
Peak level 98.8 %
Range quality 99.9 %
Copy CRC 9EA0C9B3
Copy OK
No errors occurred

AccurateRip summary

Track 1 accurately ripped (confidence 1) [E0D40F7B]
Track 2 accurately ripped (confidence 1) [FCD321C2]
Track 3 accurately ripped (confidence 1) [8E852E7F]
Track 4 accurately ripped (confidence 1) [5595B453]
Track 5 accurately ripped (confidence 1) [36376046]
Track 6 accurately ripped (confidence 1) 1403275
Track 7 accurately ripped (confidence 1) 48C4A9A
Track 8 accurately ripped (confidence 1) [00265C32]

All tracks accurately ripped
End of status report




uploadgig.png
https://uploadgig.com/file/download/70ecb44Dc3b56C61/c1w8o.Gambale.Donati.Fierabracci..Made.in.Australia.2007.rar
rapidgator.png
https://rapidgator.net/file/714e5e7d00910e44d991a625fae24a0b/c1w8o.Gambale.Donati.Fierabracci..Made.in.Australia.2007.rar
nitroflare.png
http://nitroflare.com/view/EE0FCBF3438E879/c1w8o.Gambale.Donati.Fierabracci..Made.in.Australia.2007.rar


Sponsored High Speed Downloads
5471 dl's @ 2916 KB/s
Download Now [Full Version]
5925 dl's @ 3438 KB/s
Download Link 1 - Fast Download
5120 dl's @ 3235 KB/s
Download Mirror - Direct Download



Search More...
Gambale, Donati, Fierabracci - Made in Australia (2007)

Search free ebooks in ebookee.com!


Links
Download this book

No active download links here?
Please check the description for download links if any or do a search to find alternative books.


Related Books

  1. Ebooks list page : 40269
  2. 2016-06-30National Geographic - Man Made Super Roads (2007) 720p HDTV x264-MVGroup
  3. 2014-06-17Howard And The White Boys - Made In Chicago (2007)
  4. 2014-06-15Howard And The White Boys - Made In Chicago (2007)
  5. 2014-06-14Howard And The White Boys - Made In Chicago (2007)
  6. 2010-04-21Excel 2007 Miracles Made Easy Excel 2007 Miracles Made Easy
  7. 2008-12-07Frommer's Australia 2007 (Frommer's Complete)
  8. 2007-06-16FriendsofED.Rails.Solutions.Ruby.on.Rails.Made.Easy.Jan.2007-eBo
  9. 2007-06-15FriendsofED Rails Solutions Ruby on Rails Made Easy Jan 2007 eBook-BBL
  10. 2012-09-25Communicate with Confidence: Increase Your Credibility (Made for Success Collection) (Audiobook)
  11. 2011-10-12Accent Reduction Made Easy: Secrets to speaking Standard American English
  12. 2019-03-13The Biggest Estate on Earth: How Aborigines Made Australia
  13. 2019-02-05Starkillers - Dirty Sound Vol. 1 The Infection (2007) {Made}
  14. 2018-09-23The Dogs that Made Australia The Story of the Dogs that Brought about Australia's Transformation from Starving Colony
  15. 2018-07-31The Dogs that Made Australia: The Story of the Dogs that Brought about Australia's Transformation
  16. 2018-07-31The Dogs that Made Australia The Story of the Dogs that Brought about Australia's Transformation from Starving Colony
  17. 2018-07-14Long and Winding Way to the Top Fifty (or So) Songs that Made Australia
  18. 2018-01-10[PDF] Business Process Management: 5th International Conference, BPM 2007, Brisbane, Australia, September 24-28, 2007, Proceedings (Lecture Notes in Computer Science) - Removed
  19. 2017-12-15[PDF] The Biggest Estate on Earth: How Aborigines Made Australia
  20. 2017-11-29[PDF] EXCEL 2007 MACROS MADE EASY (Made Easy Series)

Comments

No comments for "Gambale, Donati, Fierabracci - Made in Australia (2007)".


    Add Your Comments
    1. Download links and password may be in the description section, read description carefully!
    2. Do a search to find mirrors if no download links or dead links.
    Back to Top