Infiniteskills - Learning Bootstrap 3 (2013)

Category: Technical

Tag: Programming


Posted on 2014-01-24. By anonymous.

Description


Infiniteskills - Learning Bootstrap 3 (2013)
MP4 | AVC 369kbps | English | 1280x720 | 15fps | 2h 45mins | AAC stereo 39kbps | 447 MB
Genre: Video Training

In this project-based Learning Bootstrap 3 video tutorial series, you'll quickly have relevant skills for real-world applications. Follow along with our expert instructor in this training course to get: Concise, informative and broadcast-quality Learning Bootstrap 3 training videos delivered to your desktop; The ability to learn at your own pace with our intuitive, easy-to-use interface; A quick grasp of even the most complex Learning Bootstrap 3 subjects because they're broken into simple, easy to follow tutorial videos; Practical working files further enhance the learning process and provide a degree of retention that is unmatched by any other form of Learning Bootstrap 3 tutorial, online or offline... so you'll know the exact steps for your own projects.

01. Introduction
0101 Introduction To Bootstrap
0102 What To Expect
0103 The Site Build Plan
0104 How To Access Your Working Files

02. Setting Up Bootstrap
0201 Examining The Framework Files
0202 Documentation Overview

03. The Grid System
0301 Using Containers
0302 Coding Rows And Columns In HTML
0303 The Grid
0304 Controlling The Grid Across Devices
0305 Column Offsets
0306 Using Nested Columns
0307 Column Ordering

04. Responsive Helpers
0401 Responsive Images
0402 Responsive Utility Classes
0403 Media Queries and Breakpoints

05. Site Structure
0501 Building A NavBar
0502 Fixing The NavBar To The Top Of The Browser
0503 NavBar Dropdowns
0504 Building the Intro Section
0505 Building The Marketing Panel
0506 Button Options
0507 Building The Info Panel
0508 Block Quote
0509 Togglable Tabs
0510 Glyphicons
0511 Building The Footer
0512 Using Custom Typography

06. The Home Page
0601 Image Carousel
0602 Carousel Navigation
0603 Four Column Grid

07. The Blog Page
0701 Setting up the grid structure
0702 Adding the blog entries
0703 Pagination Component
0704 Search Box Inline Form
0705 Using List Groups
0706 Media Component

08. The Clients Page
0801 Setting The Grid
0802 Thumbnails
0803 Tooltips
0804 Collapse Panels

09. The Contact Page
0901 Setting The Grid
0902 Adding a Google Map
0903 Horizontal Forms
0904 Modals
0905 Building The Sidebar

10. Customizing Bootstrap
1001 Customizing The Download
1002 Customizing Colours
1003 Starter Templates

11. About The Author
1101 About The Author

Mediainfo:

Format : MPEG-4
Format profile : Base Media
Codec ID : isom
File size : 8.72 MiB
Duration : 2mn 58s
Overall bit rate : 410 Kbps
Encoded date : UTC 2013-11-21 18:07:20
Tagged date : UTC 2013-11-21 18:07:20
Video #1
ID : 1
Format : AVC
Format/Info : Advanced Video Codec
Format profile : Baseline@L3.1
Format settings, CABAC : No
Format settings, ReFrames : 3 frames
Codec ID : avc1
Codec ID/Info : Advanced Video Coding
Duration : 2mn 58s
Bit rate mode : Variable
Bit rate : 369 Kbps
Maximum bit rate : 3 057 Kbps
Width : 1 280 pixels
Height : 720 pixels
Display aspect ratio : 16:9
Frame rate mode : Constant
Frame rate : 15.000 fps
Resolution : 24 bits
Colorimetry : 4:2:0
Scan type : Progressive
Bits/(Pixel*Frame) : 0.027
Stream size : 7.84 MiB (90%)
Writing library : Zencoder Video Encoding System
Encoded date : UTC 2013-11-21 18:07:11
Tagged date : UTC 2013-11-21 18:07:20
Audio #2
ID : 2
Format : AAC
Format/Info : Advanced Audio Codec
Format version : Version 4
Format profile : LC
Format settings, SBR : No
Format settings, PS : Yes
Codec ID : 40
Duration : 2mn 58s
Bit rate mode : Variable
Bit rate : 38.9 Kbps
Maximum bit rate : 53.0 Kbps
Channel(s) : 2 channels
Channel positions : Front: L R
Sampling rate : 44.1 KHz
Resolution : 16 bits
Stream size : 847 KiB (9%)
Encoded date : UTC 2013-11-21 18:07:20
Tagged date : UTC 2013-11-21 18:07:20







No mirrors please

Visit my blog, click here


Sponsored High Speed Downloads
5913 dl's @ 2181 KB/s
Download Now [Full Version]
8564 dl's @ 2400 KB/s
Download Link 1 - Fast Download
7272 dl's @ 3717 KB/s
Download Mirror - Direct Download



Search More...
Infiniteskills - Learning Bootstrap 3 (2013)

Search free ebooks in ebookee.com!


Related Archive Books

Archive Books related to "Infiniteskills - Learning Bootstrap 3 (2013)":



Links
Download this book

No active download links here?
Please check the description for download links if any or do a search to find alternative books.


Related Books


Comments

No comments for "Infiniteskills - Learning Bootstrap 3 (2013)".


    Add Your Comments
    1. Download links and password may be in the description section, read description carefully!
    2. Do a search to find mirrors if no download links or dead links.
    Back to Top