Jonas Hellborg - Onkyo Proudly Presents Jonas Hellborg (1987)

Category: Lyrics


Posted on 2019-04-16, by Germany2020.

Description


1904150654410099.jpg



Artist: Jonas Hellborg
Title: Onkyo Proudly Presents Jonas Hellborg
Year Of Release: 1987
Label: Day Eight Music[DEM CD-007]
Genre: Jazz, Jazz Rock
Quality: FLAC (image + .cue,log,scans)
Total Time: 37:52
Total Size: 216 MB(+3%)




Tracklist
1. Zakir 5:35
2. No 5 4:23
3. Bayswater 5:35
4. Moneytalk 4:06
5. Trombone 6:07
6. Definer Of Out 2:57
7. I Want You She's So Heavy 2:42
8. Flödel 6:01
CD contains pre-emphasis
personnel :
Electric Bass - Jonas Hellborg
Liner Notes - Jonas Hellborg
1904150654420100.jpg
Exact Audio Copy V1.3 from 2. September 2016
Отчёт EAC об извлечении, выполненном 13. апреля 2019, 14:42
Jonas Hellborg / Onkyo Proudly Presents Jonas Hellborg - 1987
Дисковод: PIONEER BD-RW BDR-TD03 Adapter: 1 ID: 0
Режим чтения : Достоверность
Использование точного потока : Да
Отключение кэша аудио : Да
Использование указателей C2 : Нет
Коррекция смещения при чтении : 667
Способность читать области Lead-in и Lead-out : Нет
Заполнение пропущенных сэмплов тишиной : Да
Удаление блоков с тишиной в начале и конце : Нет[/center]

При вычислениях CRC использовались нулевые сэмплы : Да
Интерфейс : Встроенный Win32-интерфейс для Win NT/2000
Выходной формат : Пользовательский кодировщик
Выбранный битрейт : 128 kBit/s
Качество : Высокий
Добавление ID3-тега : Нет
Утилита сжатия : C:\Program Files (x86)\Exact Audio Copy\Flac\flac.exe
Дополнительные параметры : -V -8 -T "Date=%year%" -T "Genre=%genre%" %source%
TOC извлечённого CD
Трек | Старт | Длительность | Начальный сектор | Конечный сектор
---------------------------------------------------------------------
1 | 0:00.00 | 5:37.62 | 0 | 25336
2 | 5:37.62 | 4:25.43 | 25337 | 45254
3 | 10:03.30 | 5:38.42 | 45255 | 70646
4 | 15:41.72 | 4:09.00 | 70647 | 89321
5 | 19:50.72 | 6:10.20 | 89322 | 117091
6 | 26:01.17 | 2:59.40 | 117092 | 130556
7 | 29:00.57 | 2:48.48 | 130557 | 143204
8 | 31:49.30 | 6:03.27 | 143205 | 170456
Характеристики диапазона извлечения и сообщения об ошибках
Выбранный диапазон
Имя файла I:\Rip\Jonas Hellborg - Onkyo Proudly Presents Jonas Hellborg - 1987\Jonas Hellborg - Onkyo Proudly Presents Jonas Hellborg - 1987.wav
Пиковый уровень 100.0 %
Скорость извлечения 4.0 X
Качество диапазона 100.0 %
CRC теста FF836D6A
CRC копии FF836D6A
Копирование... OK
Ошибок не произошло

AccurateRip: сводка

Трек 1 : извлечено точно (доверие 2) [F788AC8E] (AR v2)
Трек 2 : извлечено точно (доверие 2) [7149396A] (AR v2)
Трек 3 : извлечено точно (доверие 2) [F055A603] (AR v2)
Трек 4 : извлечено точно (доверие 2) [5E58F33F] (AR v2)
Трек 5 : извлечено точно (доверие 2) [6821FA53] (AR v2)
Трек 6 : извлечено точно (доверие 2) [10194CE8] (AR v2)
Трек 7 : извлечено точно (доверие 2) [F9621A70] (AR v2)
Трек 8 : извлечено точно (доверие 2) [18567BA6] (AR v2)

Все треки извлечены точно
Конец отчёта
---- CUETools DB Plugin V2.1.6
[CTDB TOCID: kzKA3vmh6CX3RNWUDkGIfdLFjwI-] found
Submit result: already submitted
Track | CTDB Status
1 | (2/3) Accurately ripped, or (1/3) differs in 74 samples @00:05:17,00:12:41,00:17:14,00:20:44,02:39:17,03:00:52,03:57:73
2 | (3/3) Accurately ripped
3 | (3/3) Accurately ripped
4 | (3/3) Accurately ripped
5 | (3/3) Accurately ripped
6 | (3/3) Accurately ripped
7 | (3/3) Accurately ripped
8 | (3/3) Accurately ripped
==== Контрольная сумма отчёта 73FB98A19F5B26B108C16319B19397665E7F9F114D458DD094D5FFA4088532E9 ====





uploadgig.png
https://uploadgig.com/file/download/190cb69a24aeE435/7qsws.Jonas.Hellborg..Onkyo.Proudly.Presents.Jonas.Hellborg.1987.rar
rapidgator.png
https://rapidgator.net/file/8a501b85d587df958bb7aee7192f2eb9/7qsws.Jonas.Hellborg..Onkyo.Proudly.Presents.Jonas.Hellborg.1987.rar
nitroflare.png
http://nitroflare.com/view/E2CBF90CDAEFBEE/7qsws.Jonas.Hellborg..Onkyo.Proudly.Presents.Jonas.Hellborg.1987.rar


Sponsored High Speed Downloads
7343 dl's @ 3315 KB/s
Download Now [Full Version]
9062 dl's @ 2103 KB/s
Download Link 1 - Fast Download
9617 dl's @ 3096 KB/s
Download Mirror - Direct Download



Search More...
Jonas Hellborg - Onkyo Proudly Presents Jonas Hellborg (1987)

Search free ebooks in ebookee.com!


Links
Download this book

No active download links here?
Please check the description for download links if any or do a search to find alternative books.


Related Books


Comments

No comments for "Jonas Hellborg - Onkyo Proudly Presents Jonas Hellborg (1987)".


    Add Your Comments
    1. Download links and password may be in the description section, read description carefully!
    2. Do a search to find mirrors if no download links or dead links.
    Back to Top