Ken Cohen - The Essential Qigong Training Course [repost]

Category: Family


Posted on 2012-02-19. By anonymous.

Description


Ken Cohen - The Essential Qigong Training Course
DVDRip | English | AVI | 512 x 368 | XviD ~1183 kbps | 29.970 fps
MP3 | 128 kbps | 48.0 KHz | 2 channels | 4 hours | 2.26 GB
Genre: eLearning / Health, Eastern practices

“Now for the first time, qigong The Tien Tao Qigong training is available in a comprehensive home-study curriculum. You will learn more than 70 qigong practices for harnessing the massive power of qi to create vitality, spiritual balance, and physical health. Complete kit includes: a 59-page, weekly workbook of original material that directs you step-by-step on this classical, life-changing course. Qigong DVD workout offers you a complete, 90-minute programmable workout. 5 audio CD training course covers every phase of qigong theory and practice, including 25 rare meditation exercises that balance emotions, boost immunity, increase sexual vitality, and enhance spiritual well-being. Qigong Healing DVD includes three hours of essential teachings and exercises to learn how to direct the healing qi energy to others effectively and safely.”
MediaInfo:
General
Complete name : 10. Wellness Energy Treatments - Cleansing and Recharging.avi
Format : AVI
Format/Info : Audio Video Interleave
File size : 96.0 MiB
Duration : 10mn 8s
Overall bit rate : 1 323 Kbps
Writing application : FairUse Wizard - http://fairusewizard.com
Writing library : The best and REALLY easy backup tool
Video #0
ID : 0
Format : MPEG-4 Visual
Format profile : AdvancedSimple@L5
Format settings, BVOP : Yes
Format settings, QPel : No
Format settings, GMC : No warppoints
Format settings, Matrix : Default (MPEG)
Muxing mode : Packed bitstream
Codec ID : XVID
Codec ID/Hint : XviD
Duration : 10mn 8s
Bit rate : 1 183 Kbps
Width : 512 pixels
Height : 368 pixels
Display aspect ratio : 1.391
Frame rate : 29.970 fps
Resolution : 24 bits
Colorimetry : 4:2:0
Scan type : Progressive
Bits/(Pixel*Frame) : 0.209
Stream size : 85.8 MiB (89%)
Writing library : XviD 1.2.0.dev47 (UTC 2006-11-01)
Audio #1
ID : 1
Format : MPEG Audio
Format version : Version 1
Format profile : Layer 3
Codec ID : 55
Codec ID/Hint : MP3
Duration : 10mn 8s
Bit rate mode : Constant
Bit rate : 128 Kbps
Channel(s) : 2 channels
Sampling rate : 48.0 KHz
Resolution : 16 bits
Stream size : 9.29 MiB (10%)
Alignment : Aligned on interleaves
Interleave, duration : 33 ms (1.00 video frame)
Interleave, preload duration : 504 ms
Writing library : LAME3.97b
Encoding settings : -m j -V 4 -q 2 -lowpass 17 -b 128

Screenshots




For more, Visit my AH-blog

no mirrors please, Follow The Rules

Download:
Filepost.com

Sponsored High Speed Downloads
5514 dl's @ 3501 KB/s
Download Now [Full Version]
9009 dl's @ 3935 KB/s
Download Link 1 - Fast Download
9870 dl's @ 2222 KB/s
Download Mirror - Direct Download



Search More...
Ken Cohen - The Essential Qigong Training Course [repost]

Search free ebooks in ebookee.com!


Links
Download this book

No active download links here?
Please check the description for download links if any or do a search to find alternative books.


Related Books

  1. Ebooks list page : 17559
  2. 2016-07-16Ken Cohen The Essential Qigong Training Course
  3. 2014-05-08Ken cohen-The Essential Qigong Training Course: 100 Days to Increase Energy
  4. 2014-04-22Ken cohen-The Essential Qigong Training Course 100 Days to Increase Energy, Physical Health and Spi…
  5. 2014-04-20Ken cohen-The Essential Qigong Training Course 100 Days to Increase Energy, Physical Health and Spi...
  6. 2014-04-19Ken cohen-The Essential Qigong Training Course: 100 Days to Increase Energy, Physical Health and Spiritual Well-Being
  7. 2014-04-19Ken cohen-The Essential Qigong Training Course 100 Days to Increase Energy, Physical Health and Spir...
  8. 2014-04-18......Ken cohen-The Essential Qigong Training Course 100 Days to Increase Energy, Physical Health a...
  9. 2014-04-14Ken cohen-The Essential Qigong Training Course: 100 Days to Increase Energy, Physical Health and Spiritual Well-Being
  10. 2014-04-13Ken cohen-The Essential Qigong Training Course: 100 Days to Increase Energy, Physical Health and Spiritual Well-Being
  11. 2014-03-04Ken Cohen - The Essential Qigong Training Course [3 DVD (AVI) 5 CDs (MP3) 1 eBook (PDF)]
  12. 2013-11-30Ken Cohen - The Essential Qigong Training Course
  13. 2013-11-23Ken Cohen - The Essential Qigong Training Course [3 DVD (AVI) 5 CDs (MP3) 1 eBook (PDF)]
  14. 2011-11-29Ken Cohen - The Essential Qigong Training Course
  15. 2011-10-30Ken Cohen - The Essential Qigong Training Course
  16. 2011-09-19Ken Cohen - The Essential Qigong Training Course (2009)
  17. 2010-03-04Ken Cohen - The Essential Qigong Training Course
  18. 2012-04-25The Essential Qigong Training Course - Ken Cohen - Removed
  19. 2011-12-18The Essential Qigong Training Course- 100 Days to Increase E
  20. 2011-11-22The Essential Qigong Training Course

Comments

No comments for "Ken Cohen - The Essential Qigong Training Course [repost]".


    Add Your Comments
    1. Download links and password may be in the description section, read description carefully!
    2. Do a search to find mirrors if no download links or dead links.
    Back to Top