LeapFrog: Math Circus|DivX 3806kbps | English | 720x480 | 29.97fps | 30 mins | MP3 stereo 128kbps | 847 MB


Author: Math Circus

Date: 01.01.2011

ISBN: 0000000000

Category: Novel

Tag: Children's Reading


Posted on 2012-03-08, by LionFar.

Description




LEAPFROG: MATH CIRCUSDIVX 3806KBPS | ENGLISH | 720X480 | 29.97FPS | 30 MINS | MP3 STEREO 128KBPS |846,57 Mb

Watch the Quidget Family and the Subtractobats perform high-flying feats of mathematics! In this astounding story, Leap, Lily, Tad and wacky Professor Quigley train numbers to count, add, and subtract in a series of amazing circus acts. Numbers and Quidgets fly from trampolines, trapezes and cannons as they teach early mathematical concepts.

Mediainfo:
Format : DivX
Format/Info : Hack of AVI
File size : 847 MiB
Duration : 29mn 59s
Overall bit rate : 3 946 Kbps
Video #0
ID : 0
Format : MPEG-4 Visual
Format settings, BVOP : Yes
Format settings, QPel : No
Format settings, GMC : No warppoints
Format settings, Matrix : Default (H.263)
Muxing mode : Packed bitstream
Codec ID : DX50
Codec ID/Hint : DivX 5
Duration : 29mn 59s
Bit rate : 3 806 Kbps
Width : 720 pixels
Height : 480 pixels
Display aspect ratio : 4:3
Frame rate : 29.970 fps
Standard : NTSC
Resolution : 24 bits
Colorimetry : 4:2:0
Scan type : Progressive
Bits/(Pixel*Frame) : 0.367
Stream size : 817 MiB (96%)
Title : Video
Writing library : DivX 2151
Audio #1
ID : 1
Format : MPEG Audio
Format version : Version 1
Format profile : Layer 3
Codec ID : 55
Codec ID/Hint : MP3
Duration : 29mn 59s
Bit rate mode : Constant
Bit rate : 128 Kbps
Channel(s) : 2 channels
Sampling rate : 48.0 KHz
Resolution : 16 bits
Stream size : 27.5 MiB (3%)
Alignment : Split accross interleaves
Interleave, duration : 33 ms (1.00 video frame)
Interleave, preload duration : 500 ms
Title : Audio







Visit my blog, click here


Download

Download PART1 from Turbobit
Download PART2 from Turbobit
Download PART3 from Turbobit
Download PART4 from Turbobit

Download PART1 from Uploaded.to
Download PART2 from Uploaded.to
Download PART3 from Uploaded.to
Download PART4 from Uploaded.to


Sponsored High Speed Downloads
9678 dl's @ 3393 KB/s
Download Now [Full Version]
9483 dl's @ 3423 KB/s
Download Link 1 - Fast Download
7859 dl's @ 2236 KB/s
Download Mirror - Direct Download



Search More...
LeapFrog: Math Circus|DivX 3806kbps | English | 720x480 | 29.97fps | 30 mins | MP3 stereo 128kbps | 847 MB

Search free ebooks in ebookee.com!


Links
Download this book

No active download links here?
Please check the description for download links if any or do a search to find alternative books.


Related Books

  1. Ebooks list page : 17776
  2. 2011-11-05Get Healthy Now with Gary NullAVI | XviD 1500kbps | English | 640x480 | 29.97fps | 1h 58mins | mp3 stereo 128kbps | 1.36 GBGenre: Video Training
  3. 2011-11-20Using & Tuning Bandsaw with Hendrik VarjuM4V | AVC 1126kbps | English | 720x480 | 29.97fps | 7h 54min | AAC stereo 132kbps | 4.03 GBGenre: Video Training
  4. 2012-03-08Kelby Training - Photoshop Color Strategies|FLV | VP6 400kbps | English | 960x720 | 23.97fps | 2h 53mins | MP3 stereo 96kbps | 813 MB
  5. 2012-03-07Kelby Training Adobe Illustrator CS5 Power Session|FLV | VP6 1000kbps | English | 852x480 | 20.32fps | 1h 06mins | MP3 stereo 128kbps | 318 MB
  6. 2012-03-08Kelby Training - The Photoshop CS5 7-Point System for Camera Raw|FLV | VP6 1000kbps | English | 852x480 | 24fps | 1h 57mins | MP3 stereo 128kbps | 576 MB
  7. 2012-03-08Kelby Training - Mastering HDR in Photoshop CS5|FLV | VP6 1000kbps | English | 852x480 | 30fps | 2h 07mins | MP3 stereo 128kbps | 961 MB
  8. 2012-03-08Kelby Training - Adobe InDesign and Photoshop CS4 Integration|AVI | DX50 170kbps | English | 854x480 | 12fps | 2h 18mins | MP3 stereo 128kbps | 284 MB
  9. 2010-05-28DVDRip | DivX | 56 mins | English | 720x480 | 29.976fps | MP3 - 224kb/s | 592 MB
  10. 2010-04-27DVDRip | DivX | 56 mins | English | 720x480 | 29.976fps | MP3 - 224kb/s | 592 MB
  11. 2010-04-27DVDRip | DivX | 56 mins | English | 720x480 | 29.976fps | MP3 - 224kb/s | 592 MB
  12. 2010-04-27DVDRip | DivX | 56 mins | English | 720x480 | 29.976fps | MP3 - 224kb/s | 592 MB
  13. 2010-04-27DVDRip | DivX | 56 mins | English | 720x480 | 29.976fps | MP3 - 224kb/s | 592 MB
  14. 2010-04-19DVDRip | DivX | 56 mins | English | 720x480 | 29.976fps | MP3 - 224kb/s |
  15. 2012-05-16CENTER] English | Flash Video | VP6, ~286 kb/s | 720x480 | Duration: 02:30:31 | MP3, 64 kb/s (1 ch) |
  16. 2011-05-12H264 | English | 720x480 | M4V | 9000 fps 1199 kbps
  17. 2011-01-26LeapFrog: Math Adventure to the Moon
  18. 2010-12-07Basic Math and Pre-Algebra (English)
  19. 2013-04-15English in Mind Vol (1 - 3) | MP3 & PDF - Removed
  20. 2013-02-16TTC Audio - The Secret Life of Words - English Words and Their Origins [36 mp3]

Comments

No comments for "LeapFrog: Math Circus|DivX 3806kbps | English | 720x480 | 29.97fps | 30 mins | MP3 stereo 128kbps | 847 MB".


    Add Your Comments
    1. Download links and password may be in the description section, read description carefully!
    2. Do a search to find mirrors if no download links or dead links.

    required

    required, will not be published

    need login

    required

    Not clear? Click here to refresh.

    Back to Top