Lick Library - Learn to play Rainbow 2 DVD (2012)

Category: Lyrics


Posted on 2014-01-29. By anonymous.

Description


Lick Library - Learn to play Rainbow 2 DVD (2012)
AVI | XviD 903kbps | English | 688x368 | 25fps | 3h 34mins | MP3 stereo 128kbps | 1.57 GB
Genre: Video Training

Learn five tracks note for note, lessons by Danny Gill This superb DVD teaches you some of Ritchie Blackmores best riffs and solos from the early Rainbow years! Guitar lessons include: Stargazer Gates Of Babylon Man On The Silver Mountain Still Im Sad Kill The King Danny Gill is a former pupil of Joe Satriani, and co-author of the Musicians Institute Rock Lead Guitar series. His songs have appeared on numerous TV shows including 'The Osbournes' as well as motion picture soundtracks such as 'Insomnia' and 'Under Siege'.

Man On The Silver Mountain
Intro, Chorus & Verse (7:36)
Pre Chorus & 2nd Chorus (7:03)
Solo (11:06)
Performance (4:27)

Still I'm Sad
Intro & 1st Verse (8:33)
Chorus & 2nd Verse (6:17)
Main Solo (6:13)
3rd Verse & Outro Licks (6:10)
Performance (3:56)

Stargazer
Intro & Verse (5:26)
Pre Chorus & Chorus (6:05)
Slide Solo (3:59)
Main Solo (13:09)
Performance (7:52)

Kill The King
Intro & Chorus (5:55)
Verse (6:04)
Solo Part 1 (4:11)
Solo Part 2 (9:54)
Solo Part 3 & Remaining Rhythm Parts (8:55)
Performance (4:36)

Gates Of Babylon
Rhythm Parts (11:22)
Solo Part 1 (9:42)
Solo Part 2 (14:55)
Performance (5:46)

EXTRAS
Introduction (0:44)
Scale Analysis (4:35)
Sound & Conclusion (2:28)

JAM TRACKS
Man On The Silver Mountain (4:32)
Still I'm Sad (3:52)
Stargazer (7:51)
Kill The King (4:36)
Gates Of Babylon (5:45)

Mediainfo:

Format : AVI
Format/Info : Audio Video Interleave
File size : 45.3 MiB
Duration : 6mn 5s
Overall bit rate : 1 041 Kbps
Writing application : VirtualDubMod 1.5.10.2 (build 2540/release)
Writing library : VirtualDubMod build 2540/release
Video #0
ID : 0
Format : MPEG-4 Visual
Format profile : AdvancedSimple@L5
Format settings, BVOP : Yes
Format settings, QPel : No
Format settings, GMC : No warppoints
Format settings, Matrix : Default (MPEG)
Codec ID : XVID
Codec ID/Hint : XviD
Duration : 6mn 5s
Bit rate : 903 Kbps
Width : 688 pixels
Height : 368 pixels
Display aspect ratio : 1.870
Frame rate : 25.000 fps
Resolution : 24 bits
Colorimetry : 4:2:0
Scan type : Progressive
Bits/(Pixel*Frame) : 0.143
Stream size : 39.3 MiB (87%)
Writing library : XviD 64
Audio #1
ID : 1
Format : MPEG Audio
Format version : Version 1
Format profile : Layer 3
Codec ID : 55
Codec ID/Hint : MP3
Duration : 6mn 5s
Bit rate mode : Constant
Bit rate : 128 Kbps
Channel(s) : 2 channels
Sampling rate : 48.0 KHz
Resolution : 16 bits
Stream size : 5.57 MiB (12%)
Alignment : Aligned on interleaves
Interleave, duration : 40 ms (1.00 video frame)
Interleave, preload duration : 504 ms
Writing library : LAME3.99r
Encoding settings : -m j -V 4 -q 0 -lowpass 16 -b 128






No mirrors please

Visit my blog, click here


Sponsored High Speed Downloads
6129 dl's @ 2699 KB/s
Download Now [Full Version]
9320 dl's @ 3100 KB/s
Download Link 1 - Fast Download
8263 dl's @ 2762 KB/s
Download Mirror - Direct Download



Search More...
Lick Library - Learn to play Rainbow 2 DVD (2012)

Search free ebooks in ebookee.com!


Links
Download this book

No active download links here?
Please check the description for download links if any or do a search to find alternative books.


Related Books


Comments

No comments for "Lick Library - Learn to play Rainbow 2 DVD (2012)".


    Add Your Comments
    1. Download links and password may be in the description section, read description carefully!
    2. Do a search to find mirrors if no download links or dead links.
    Back to Top