Marcus Miller - The Sun Don't Lie (1993) CD Rip

Category: Lyrics


Posted on 2019-04-15, by Germany2020.

Description


1904150656110089.jpg



Artist: Marcus Miller
Title: The Sun Don't Lie
Year Of Release: 1993
Label: Pra Records[60201-2]
Genre: Jazz, Crossover Jazz, Fusion
Quality: FLAC (tracks + .cue,log,scans)
Total Time: 60:30
Total Size: 403 MB(+3%)




Tracklist
1. Panther
2. Steveland
3. Rampage
4. The Sun Don't Lie
5. Scoop
6. Mr. Pastorius
7. Funny (All She Needs Is Love)
8. Moons
9. Teen Town - Marcus Miller, Pastorius, Jaco
10. Juju
11. King Is Gone (For Miles)
personnel :
Don Alias - Percussion, Conga
Poogie Bell - Drums
Dean Brown - Lead Guitar
Hiram Bullock - Guitar
Jonathan Butler - Guitar
Will Calhoun - Drums
Paulinho Da Costa - Percussion
Miles Davis - Trumpet
Steve Ferrone - Drums (High Hat, Sidestick, Bass Drum)
Kenny Garrett - Alto saxophone
Omar Hakim - Drums (Snare Drum, Bass Drum, Cymbals)
Everette Harp - Alto & Soprano saxophone
Paul Jackson, Jr. - Guitar (Rhythm)
Sal Marquez - Trumpet (Additional)
Marcus Miller - Bass Guitar, Bass Clarinet, Rhythm guitar, Keyboards, Vocal, Programming, Producer, Engineer, Drum Programming
1904150656120111.jpg
Exact Audio Copy V0.99 prebeta 4 from 23. January 2008
EAC extraction logfile from 3. January 2009, 18:39
Marcus Miller / The Sun Don't Lie
Used drive : _NEC DVD_RW ND-3540A Adapter: 0 ID: 0
Read mode : Secure
Utilize accurate stream : Yes
Defeat audio cache : Yes
Make use of C2 pointers : No
Read offset correction : 48
Overread into Lead-In and Lead-Out : No
Fill up missing offset samples with silence : Yes
Delete leading and trailing silent blocks : No[/center]

Null samples used in CRC calculations : Yes
Used interface : Native Win32 interface for Win NT & 2000
Gap handling : Appended to previous track
Used output format : User Defined Encoder
Selected bitrate : 1024 kBit/s
Quality : High
Add ID3 tag : No
Command line compressor : C:\Program Files\Exact Audio Copy\Flac\flac.exe
Additional command line options : -8 -V -T "ARTIST=%a" -T "TITLE=%t" -T "ALBUM=%g" -T "DATE=%y" -T "TRACKNUMBER=%n" -T "GENRE=%m" -T "COMMENT=EAC FLAC -8" %s
TOC of the extracted CD
Track | Start | Length | Start sector | End sector
---------------------------------------------------------
1 | 0:00.50 | 6:02.42 | 50 | 27241
2 | 6:03.17 | 7:21.70 | 27242 | 60386
3 | 13:25.12 | 5:48.40 | 60387 | 86526
4 | 19:13.52 | 6:29.40 | 86527 | 115741
5 | 25:43.17 | 5:59.18 | 115742 | 142684
6 | 31:42.35 | 1:25.40 | 142685 | 149099
7 | 33:08.00 | 5:26.07 | 149100 | 173556
8 | 38:34.07 | 4:52.43 | 173557 | 195499
9 | 43:26.50 | 4:55.50 | 195500 | 217674
10 | 48:22.25 | 6:02.72 | 217675 | 244896
11 | 54:25.22 | 6:05.63 | 244897 | 272334
Track 1
Filename C:\Marcus Miller - The Sun Don't Lie (1993) [FLAC]\01 - Panther.wav
Pre-gap length 0:00:02.50
Peak level 96.3 %
Track quality 100.0 %
Test CRC EEE65084
Copy CRC EEE65084
Accurately ripped (confidence 10) [32F58D98]
Copy OK
Track 2
Filename C:\Marcus Miller - The Sun Don't Lie (1993) [FLAC]\02 - Steveland.wav
Peak level 96.3 %
Track quality 100.0 %
Test CRC 0CA85140
Copy CRC 0CA85140
Accurately ripped (confidence 10) [9E00BCE0]
Copy OK
Track 3
Filename C:\Marcus Miller - The Sun Don't Lie (1993) [FLAC]\03 - Rampage.wav
Peak level 96.7 %
Track quality 100.0 %
Test CRC 5420FCAB
Copy CRC 5420FCAB
Accurately ripped (confidence 10) [6EFC2C26]
Copy OK
Track 4
Filename C:\Marcus Miller - The Sun Don't Lie (1993) [FLAC]\04 - Sun Don't Lie.wav
Peak level 96.3 %
Track quality 99.9 %
Test CRC 4A8DDC09
Copy CRC 4A8DDC09
Accurately ripped (confidence 10) [3E2C3B56]
Copy OK
Track 5
Filename C:\Marcus Miller - The Sun Don't Lie (1993) [FLAC]\05 - Scoop.wav
Peak level 89.1 %
Track quality 100.0 %
Test CRC 1AE3C75E
Copy CRC 1AE3C75E
Accurately ripped (confidence 10) [EAF4B0DC]
Copy OK
Track 6
Filename C:\Marcus Miller - The Sun Don't Lie (1993) [FLAC]\06 - Mr. Pastorius.wav
Peak level 89.1 %
Track quality 100.0 %
Test CRC 094B758D
Copy CRC 094B758D
Accurately ripped (confidence 10) [8A29F44A]
Copy OK
Track 7
Filename C:\Marcus Miller - The Sun Don't Lie (1993) [FLAC]\07 - Funny (All She Needs Is Love).wav
Peak level 99.4 %
Track quality 99.9 %
Test CRC 49DFE4B7
Copy CRC 49DFE4B7
Accurately ripped (confidence 10) [2881E786]
Copy OK
Track 8
Filename C:\Marcus Miller - The Sun Don't Lie (1993) [FLAC]\08 - Moons.wav
Peak level 96.3 %
Track quality 99.9 %
Test CRC C64B87F5
Copy CRC C64B87F5
Accurately ripped (confidence 10) [E422D6BA]
Copy OK
Track 9
Filename C:\Marcus Miller - The Sun Don't Lie (1993) [FLAC]\09 - Teen Town.wav
Peak level 96.3 %
Track quality 100.0 %
Test CRC F06AC48F
Copy CRC F06AC48F
Accurately ripped (confidence 10) [0FDDA611]
Copy OK
Track 10
Filename C:\Marcus Miller - The Sun Don't Lie (1993) [FLAC]\10 - Juju.wav
Peak level 96.3 %
Track quality 99.9 %
Test CRC 56BC0F65
Copy CRC 56BC0F65
Accurately ripped (confidence 10) [4F9A71B4]
Copy OK
Track 11
Filename C:\Marcus Miller - The Sun Don't Lie (1993) [FLAC]\11 - The King Is Gone (For Miles).wav
Peak level 96.3 %
Track quality 100.0 %
Test CRC FC8639AA
Copy CRC FC8639AA
Accurately ripped (confidence 10) [F4FBCB39]
Copy OK
All tracks accurately ripped
No errors occurred
End of status report




uploadgig.png
https://uploadgig.com/file/download/9dc251cb777f0B88/ekblm.Marcus.Miller..The.Sun.Dont.Lie.1993.CD.Rip.rar
rapidgator.png
https://rapidgator.net/file/bd7c4ea4612308f6ce9d61f399d022d9/ekblm.Marcus.Miller..The.Sun.Dont.Lie.1993.CD.Rip.rar
nitroflare.png
http://nitroflare.com/view/CCB986D443578DA/ekblm.Marcus.Miller..The.Sun.Dont.Lie.1993.CD.Rip.rar


Sponsored High Speed Downloads
6373 dl's @ 3244 KB/s
Download Now [Full Version]
5184 dl's @ 3492 KB/s
Download Link 1 - Fast Download
9777 dl's @ 2328 KB/s
Download Mirror - Direct Download



Search More...
Marcus Miller - The Sun Don't Lie (1993) CD Rip

Search free ebooks in ebookee.com!


Links
Download this book

No active download links here?
Please check the description for download links if any or do a search to find alternative books.


Related Books

  1. Ebooks list page : 40271
  2. 2012-06-14Frank Miller: The Art of Sin City (French Edition)
  3. 2018-09-28The Rocks Don't Lie A Geologist Investigates Noah's Flood
  4. 2018-01-25[PDF] Guns and Crime: The Data Don't Lie
  5. 2018-01-25[PDF] Guns and Crime: The Data Don't Lie
  6. 2018-01-08[PDF] The Rocks Don't Lie: A Geologist Investigates Noah's Flood
  7. 2018-01-08[PDF] The Rocks Don't Lie: A Geologist Investigates Noah's Flood
  8. 2017-11-20[PDF] Say to the Sun, 'Don't Rise,' and to the Moon, 'Don't Set': Two Oral Narratives from the Countryside of Maharashtra (South Asia Research)
  9. 2017-11-20[PDF] Say to the Sun, 'Don't Rise,' and to the Moon, 'Don't Set': Two Oral Narratives from the Countryside of Maharashtra (South Asia Research)
  10. 2017-10-17[PDF] The Dead Don't Lie (Harbour Bay Series) (Volume 3)
  11. 2017-02-09[PDF] The Rocks Don't Lie: A Geologist Investigates Noah's Flood
  12. 2017-01-10[PDF] Say to the Sun, 'Don't Rise,' and to the Moon, 'Don't Set': Two Oral Narratives from the Countryside of Maharashtra (South Asia Research)
  13. 2013-08-10The Rocks Don't Lie: A Geologist Investigates Noah's Flood [Repost]
  14. 2017-04-19Race The Sun v1.50 incl Sunrise DLC RIP-Unleashed
  15. 2017-03-13Race The Sun v1.50 incl Sunrise DLC RIP-Unleashed
  16. 2017-02-05Race The Sun v1.50 incl Sunrise DLC RIP-Unleashed
  17. 2018-12-21George Michael, Elton John - Don't Let The Sun Go Down On Me (1991)
  18. 2018-04-25Dividends Still Don't Lie The Truth About Investing in Blue Chip Stocks and Winning in the Stock Market
  19. 2018-03-24Don't Play in the Sun: One Woman's Journey Through the Color Complex
  20. 2017-11-23[PDF] Dividends Still Don't Lie: The Truth About Investing in Blue Chip Stocks and Winning in the Stock Market

Comments

No comments for "Marcus Miller - The Sun Don't Lie (1993) CD Rip".


    Add Your Comments
    1. Download links and password may be in the description section, read description carefully!
    2. Do a search to find mirrors if no download links or dead links.
    Back to Top