Next Level Guitar Beginner Dvd Series 1-4

Category: Tutorial


Posted on 2013-06-13, by voska89.

Description

                


Next Level Guitar Beginner Dvd Series 1-4 | 16.602 GB
Genre: E-Learning
Next Level Guitar Beginner Dvd Series 1-4.

General
Complete name : Next Level Guitar Beginner Dvd Series 1-4\NEXT LEVEL DVD 1\IMG.jpg
Format : JPEG
File size : 967 KiB

Image
Format : JPEG
Width : 1 416 pixels
Height : 1 424 pixels
Color space : YUV
Chroma subsampling : 4:4:4
Bit depth : 8 bits
Compression mode : Lossy
Stream size : 967 KiB (100%)

General
Complete name : Next Level Guitar Beginner Dvd Series 1-4\NEXT LEVEL DVD 1\NEXT LEVEL DVD1.ini
File size : 46.0 Bytes

General
Complete name : Next Level Guitar Beginner Dvd Series 1-4\NEXT LEVEL DVD 1\NEXT LEVEL DVD1.iso
Format : ISO 9660
File size : 4.15 GiB

General
Complete name : Next Level Guitar Beginner Dvd Series 1-4\NEXT LEVEL DVD 2\IMG.jpg
Format : JPEG
File size : 928 KiB

Image
Format : JPEG
Width : 1 408 pixels
Height : 1 428 pixels
Color space : YUV
Chroma subsampling : 4:4:4
Bit depth : 8 bits
Compression mode : Lossy
Stream size : 928 KiB (100%)

General
Complete name : Next Level Guitar Beginner Dvd Series 1-4\NEXT LEVEL DVD 2\NEXT LEVEL DVD 2.ini
File size : 46.0 Bytes

General
Complete name : Next Level Guitar Beginner Dvd Series 1-4\NEXT LEVEL DVD 2\NEXT LEVEL DVD 2.iso
Format : ISO 9660
File size : 4.15 GiB

General
Complete name : Next Level Guitar Beginner Dvd Series 1-4\NEXT LEVEL DVD 3\IMG.jpg
Format : JPEG
File size : 921 KiB

Image
Format : JPEG
Width : 1 412 pixels
Height : 1 424 pixels
Color space : YUV
Chroma subsampling : 4:4:4
Bit depth : 8 bits
Compression mode : Lossy
Stream size : 921 KiB (100%)

General
Complete name : Next Level Guitar Beginner Dvd Series 1-4\NEXT LEVEL DVD 3\NEXT LEVEL DVD 3.ini
File size : 42.0 Bytes

General
Complete name : Next Level Guitar Beginner Dvd Series 1-4\NEXT LEVEL DVD 3\NEXT LEVEL DVD 3.iso
Format : ISO 9660
File size : 4.14 GiB

General
Complete name : Next Level Guitar Beginner Dvd Series 1-4\NEXT LEVEL DVD 4\IMG_0003.jpg
Format : JPEG
File size : 966 KiB

Image
Format : JPEG
Width : 1 412 pixels
Height : 1 428 pixels
Color space : YUV
Chroma subsampling : 4:4:4
Bit depth : 8 bits
Compression mode : Lossy
Stream size : 966 KiB (100%)

General
Complete name : Next Level Guitar Beginner Dvd Series 1-4\NEXT LEVEL DVD 4\NEXT LEVEL DVD 3.ini
File size : 43.0 Bytes

General
Complete name : Next Level Guitar Beginner Dvd Series 1-4\NEXT LEVEL DVD 4\NEXT LEVEL DVD 3.iso
Format : ISO 9660
File size : 4.15 GiB

General
Complete name : Next Level Guitar Beginner Dvd Series 1-4\Next Level Guitar Beginner Dvd Series 1-4 Booklet.pdf
File size : 9.35 MiB

General
Complete name : Next Level Guitar Beginner Dvd Series 1-4\Thumbs.db
File size : 16.5 KiB


(All below links are interchangable. No password)




Buy Premium Account and download as fast as you can or you will lose file you need ( File death because of Copyright Infringement )


Download ( Uploaded )


http://uploaded.net/file/5zg93et4/Next%20Level%20Guitar%20Beginner%20Dvd%20Series%201-4.part01.rar
http://uploaded.net/file/bhp97egi/Next%20Level%20Guitar%20Beginner%20Dvd%20Series%201-4.part02.rar
http://uploaded.net/file/sjnmea5l/Next%20Level%20Guitar%20Beginner%20Dvd%20Series%201-4.part03.rar
http://uploaded.net/file/s95kvh3x/Next%20Level%20Guitar%20Beginner%20Dvd%20Series%201-4.part04.rar
http://uploaded.net/file/i336ub1i/Next%20Level%20Guitar%20Beginner%20Dvd%20Series%201-4.part05.rar
http://uploaded.net/file/x1hq2ih1/Next%20Level%20Guitar%20Beginner%20Dvd%20Series%201-4.part06.rar
http://uploaded.net/file/wbb89asu/Next%20Level%20Guitar%20Beginner%20Dvd%20Series%201-4.part07.rar
http://uploaded.net/file/d9mu78rm/Next%20Level%20Guitar%20Beginner%20Dvd%20Series%201-4.part08.rar
http://uploaded.net/file/33fz7uwt/Next%20Level%20Guitar%20Beginner%20Dvd%20Series%201-4.part09.rar

Download ( DizzCloud )


http://dizzcloud.com/dl/164ff95/Next Level Guitar Beginner Dvd Series 1-4.part01.rar
http://dizzcloud.com/dl/164ff8y/Next Level Guitar Beginner Dvd Series 1-4.part02.rar
http://dizzcloud.com/dl/164ff8x/Next Level Guitar Beginner Dvd Series 1-4.part03.rar
http://dizzcloud.com/dl/164ff9a/Next Level Guitar Beginner Dvd Series 1-4.part04.rar
http://dizzcloud.com/dl/164ff93/Next Level Guitar Beginner Dvd Series 1-4.part05.rar
http://dizzcloud.com/dl/164ff7z/Next Level Guitar Beginner Dvd Series 1-4.part06.rar
http://dizzcloud.com/dl/164ff8g/Next Level Guitar Beginner Dvd Series 1-4.part07.rar
http://dizzcloud.com/dl/164ff8w/Next Level Guitar Beginner Dvd Series 1-4.part08.rar
http://dizzcloud.com/dl/164fbly/Next Level Guitar Beginner Dvd Series 1-4.part09.rar



Download ( Lumfile )


http://lumfile.com/hgnrzb1iy6sh/Next_Level_Guitar_Beginner_Dvd_Series_1-4.part01.rar.html
http://lumfile.com/5o2xwfi0vyy0/Next_Level_Guitar_Beginner_Dvd_Series_1-4.part02.rar.html
http://lumfile.com/bmoiyyj45c1h/Next_Level_Guitar_Beginner_Dvd_Series_1-4.part03.rar.html
http://lumfile.com/4qw9dmmnfpve/Next_Level_Guitar_Beginner_Dvd_Series_1-4.part04.rar.html
http://lumfile.com/qcv0vnpil2ad/Next_Level_Guitar_Beginner_Dvd_Series_1-4.part05.rar.html
http://lumfile.com/wigorolaw3ki/Next_Level_Guitar_Beginner_Dvd_Series_1-4.part06.rar.html
http://lumfile.com/jw4yxegrfut4/Next_Level_Guitar_Beginner_Dvd_Series_1-4.part07.rar.html
http://lumfile.com/l3l4y9jz50ga/Next_Level_Guitar_Beginner_Dvd_Series_1-4.part08.rar.html
http://lumfile.com/oyoc3r9geudx/Next_Level_Guitar_Beginner_Dvd_Series_1-4.part09.rar.html





Click my nick to see more my articles     

Sponsored High Speed Downloads
5034 dl's @ 3184 KB/s
Download Now [Full Version]
8421 dl's @ 2284 KB/s
Download Link 1 - Fast Download
7587 dl's @ 2246 KB/s
Download Mirror - Direct Download



Search More...
Next Level Guitar Beginner Dvd Series 1-4

Search free ebooks in ebookee.com!


Related Archive Books

Archive Books related to "Next Level Guitar Beginner Dvd Series 1-4":



Links
Download this book

No active download links here?
Please check the description for download links if any or do a search to find alternative books.


Related Books


Comments

No comments for "Next Level Guitar Beginner Dvd Series 1-4".


    Add Your Comments
    1. Download links and password may be in the description section, read description carefully!
    2. Do a search to find mirrors if no download links or dead links.
    Back to Top