OReilly Learning Path Android Basics

Category: Technical


Posted on 2016-12-06, by nobihai.

Description

OReilly Learning Path Android Basics|2.66 GB Description O'Reilly - Learning Path - Android Basics URL: http://shop.oreilly.com/category/learning-path/android-basics.do Description With a wide range of tools designed to facilitate the development process, creating Android apps has never been easier. This Learning Path gives you the tools and skills you need to create the next killer app for Android devices. Prerequisite: Experience with Java programming 1. Learning Android Presented by Ken Kousen | 5 hours 2 minutes Learn the basics of developing for Android devices using the Android Studio wizard. You’ll learn how to access the Android Developer website for dashboards, version numbers, and market distributions, as well as where to find the tools and technologies you need for development. 2. Learning Android Studio Presented by Chris Stanley | 1 hour 50 minutes Extend your Android development skills as you learn about basic project configuration and configuration settings, including code style settings, inspections, and debugging. From there, you’ll start to work with Android activities, navigate Android Studio, and more. 3. Practical Android Presented by Ken Kousen | 4 hours 31 minutes Get practical tips to further enhance your Android skills. Learn how to create alert dialogs and configure dialog buttons so they react to clicks. This includes creating an interface that the activity implements, as well as everything you need to know about fragments. Instructor Ken Kousen also reviews the Google Play store and deployment process. 4. Gradle for Android Presented by Ken Kousen | 4 hours 31 minutes If you’re an experienced Android developer or just preparing to jump in, you need to know the Gradle automated build system. In this step of your Learning Path, instructor Ken Kousen shows you how to work with Gradle when developing apps for Android devices. Quote: General Complete name : 1.mp4 Format : MPEG-4 Format profile : Base Media / Version 2 Codec ID : mp42 (isom/iso2/avc1/mp41) File size : 15.0 MiB Duration : 2 min 36 s Overall bit rate mode : Variable Overall bit rate : 804 kb/s Encoded date : UTC 2016-11-25 03:43:23 Tagged date : UTC 2016-11-25 03:43:23 Writing application : HandBrake 0.10.5 2016021100 Video ID : 1 Format : AVC Format/Info : Advanced Video Codec Format profile : High@L3.1 Format settings, CABAC : Yes Format settings, ReFrames : 4 frames Codec ID : avc1 Codec ID/Info : Advanced Video Coding Duration : 2 min 36 s Bit rate : 642 kb/s Width : 1 280 pixels Height : 720 pixels Display aspect ratio : 16:9 Frame rate mode : Variable Frame rate : 29.970 (29970/1000) FPS Minimum frame rate : 12.531 FPS Maximum frame rate : 29.970 FPS Color space : YUV Chroma subsampling : 4:2:0 Bit depth : 8 bits Scan type : Progressive Bits/(Pixel*Frame) : 0.023 Stream size : 12.0 MiB (80%) Writing library : x264 core 142 r2479 dd79a61 Encoding settings : cabac=1 / ref=4 / deblock=1:0:0 / analyse=0x3:0x113 / me=hex / subme=7 / psy=1 / psy_rd=1.00:0.00 / mixed_ref=0 / me_range=16 / chroma_me=1 / trellis=1 / 8x8dct=1 / cqm=0 / deadzone=21,11 / fast_pskip=1 / chroma_qp_offset=-2 / threads=6 / lookahead_threads=1 / sliced_threads=0 / nr=0 / decimate=1 / interlaced=0 / bluray_compat=0 / constrained_intra=0 / bframes=3 / b_pyramid=2 / b_adapt=1 / b_bias=0 / direct=1 / weightb=1 / open_gop=0 / weightp=2 / keyint=300 / keyint_min=30 / scenecut=40 / intra_refresh=0 / rc_lookahead=10 / rc=crf / mbtree=1 / crf=24.0 / qcomp=0.60 / qpmin=0 / qpmax=69 / qpstep=4 / ip_ratio=1.40 / aq=1:1.00 Encoded date : UTC 2016-11-25 03:43:23 Tagged date : UTC 2016-11-25 03:43:23 Color range : Limited Color primaries : BT.709 Transfer characteristics : BT.709 Matrix coefficients : BT.709 Audio ID : 2 Format : AAC Format/Info : Advanced Audio Codec Format profile : LC Codec ID : 40 Duration : 2 min 36 s Bit rate mode : Variable Bit rate : 154 kb/s Channel(s) : 2 channels Channel(s)_Original : 1 channel Channel positions : Front: C Sampling rate : 48.0 kHz Frame rate : 46.875 FPS (1024 spf) Compression mode : Lossy Stream size : 2.89 MiB (19%) Title : Mono / Mono Default : Yes Alternate group : 1 Encoded date : UTC 2016-11-25 03:43:23 Tagged date : UTC 2016-11-25 03:43:23 URL : http://shop.oreilly.com/category/learning-path/android-basics.do
http://nitroflare.com/view/852DB55DF0337EB/201631283111_250755.part1.rar http://uploaded.net/file/oiop46l5/201631283111_250755.part1.rar http://nitroflare.com/view/F7D9D5BE0D79032/201631283111_250755.part2.rar http://uploaded.net/file/wcasnn5c/201631283111_250755.part2.rar http://nitroflare.com/view/937F9BA57565A6B/201631283111_250755.part3.rar http://uploaded.net/file/3uxz9xf4/201631283111_250755.part3.rar

http://www.irarchive.com/vip/dl/6/zf96p1lf0d/201631283111_250755.part1.rar http://www.irarchive.com/vip/dl/6/xsiniio8gn/201631283111_250755.part2.rar http://www.irarchive.com/vip/dl/6/53xn8mzom2/201631283111_250755.part3.rar


Sponsored High Speed Downloads
7811 dl's @ 2023 KB/s
Download Now [Full Version]
5572 dl's @ 2963 KB/s
Download Link 1 - Fast Download
6379 dl's @ 2573 KB/s
Download Mirror - Direct Download



Search More...
OReilly Learning Path Android Basics

Search free ebooks in ebookee.com!


Related Archive Books

Archive Books related to "OReilly Learning Path Android Basics":



Links
Download this book

No active download links here?
Please check the description for download links if any or do a search to find alternative books.


Related Books


Comments

No comments for "OReilly Learning Path Android Basics".


    Add Your Comments
    1. Download links and password may be in the description section, read description carefully!
    2. Do a search to find mirrors if no download links or dead links.
    Back to Top