Painting On Location - The Sonoran Desert with Matt Smith [repost]

Category: Arts


Posted on 2012-02-13. By anonymous.

Description


Painting On Location - The Sonoran Desert with Matt Smith
DVDRip | English | AVI | 720 x 544 | XviD ~2997 kbps | 29.970 fps
AC-3 | 384 kbps | 48.0 KHz | 2 channels | 01:12:23 | 1.71 GB
Genre: Video Tutorial / Drawing, Painting

“For more than a quarter of a century Matt Smith has been painting the landscape of the southwest and has received prestigious recognition for his work, including the Robert Lougheed Award at the Prix de West Show, the Red Smith Award from the National Museum of Wildlife Art and both Best of Show and Artistic Merit awards at the Western Rendezvous of Art.”
In return for all the guidance given him in earlier years by contemporary landscape masters, he devotes time for workshops and seminars. "After learning so much from artists I deeply admire, I feel a responsibility to pass it on to others. I hope in some small way this contributes to keeping traditions alive. Also, teaching helps me convey my personal ideas and values about art."

Matt is one of the most sought after instructors, with his workshops selling out months in advance. The idea of an instructional video seemed like a natural progression. So here's your chance to spend about 1 1/2 hours venturing with him into the Sonoran desert where he will take you through his process of painting outdoors.

MediaInfo:
General
Complete name : Matt Smith - Painting On Location. The Sonoran Desert.avi
Format : AVI
Format/Info : Audio Video Interleave
Format profile : OpenDML
File size : 1.71 GiB
Duration : 1h 12mn
Overall bit rate : 3 388 Kbps
Writing application : AVI-Mux GUI 1.17.8.3, Feb 16 201019:42:50
Video #0
ID : 0
Format : MPEG-4 Visual
Format profile : AdvancedSimple@L5
Format settings, BVOP : Yes
Format settings, QPel : Yes
Format settings, GMC : No warppoints
Format settings, Matrix : Default (H.263)
Codec ID : XVID
Codec ID/Hint : XviD
Duration : 1h 12mn
Bit rate : 2 997 Kbps
Width : 720 pixels
Height : 544 pixels
Display aspect ratio : 4:3
Frame rate : 29.970 fps
Resolution : 24 bits
Colorimetry : 4:2:0
Scan type : Progressive
Bits/(Pixel*Frame) : 0.255
Stream size : 1.52 GiB (88%)
Writing library : em4v 4.1.6.5
Audio #1
ID : 1
Format : AC-3
Format/Info : Audio Coding 3
Codec ID : 2000
Duration : 1h 12mn
Bit rate mode : Constant
Bit rate : 384 Kbps
Channel(s) : 2 channels
Channel positions : L R
Sampling rate : 48.0 KHz
Stream size : 199 MiB (11%)
Alignment : Aligned on interleaves
Interleave, duration : 64 ms (1.92 video frames)
Interleave, preload duration : 192 ms
Title : ms
Screenshots




For more, Visit my AH-blog

no mirrors please, Follow The Rules

Download:
Filepost.com

Sponsored High Speed Downloads
8474 dl's @ 2858 KB/s
Download Now [Full Version]
9667 dl's @ 2832 KB/s
Download Link 1 - Fast Download
7855 dl's @ 2363 KB/s
Download Mirror - Direct Download



Search More...
Painting On Location - The Sonoran Desert with Matt Smith [repost]

Search free ebooks in ebookee.com!


Links
Download this book

No active download links here?
Please check the description for download links if any or do a search to find alternative books.


Related Books


Comments

No comments for "Painting On Location - The Sonoran Desert with Matt Smith [repost]".


    Add Your Comments
    1. Download links and password may be in the description section, read description carefully!
    2. Do a search to find mirrors if no download links or dead links.
    Back to Top