Parer's War (2014)

Language: English

Category: Entertainment


Posted on 2014-05-05, by supnatural.

Description

http://i56.fastpic.ru/big/2014/0503/8a/8bb19e3909b47cb33e60711bfff8b58a.jpg

Parer's War (2014)
HDTV | 716x326 | MP4/x264 @ 829 Kbps | 98mn | Audio: English AAC 144 kbps, 2 channels | Subs: None | 685 MB
Genre: Documentary

Based on a true story, Parer's War tells the story of WWII cameraman Damien Parer. Battling his own demons, his work won Australia's first Oscar but almost cost him the woman he loved.
More info




Video
ID : 1
Format : AVC
Format/Info : Advanced Video Codec
Format profile : High@L3.1
Format settings, CABAC : Yes
Format settings, ReFrames : 5 frames
Codec ID : avc1
Codec ID/Info : Advanced Video Coding
Duration : 1h 38mn
Bit rate mode : Variable
Bit rate : 829 Kbps
Maximum bit rate : 5 166 Kbps
Width : 716 pixels
Height : 326 pixels
Display aspect ratio : 2.2:1
Frame rate mode : Variable
Frame rate : 25.000 fps
Minimum frame rate : 24.802 fps
Maximum frame rate : 25.407 fps
Color space : YUV
Chroma subsampling : 4:2:0
Bit depth : 8 bits
Scan type : Progressive
Bits/(Pixel*Frame) : 0.142
Stream size : 583 MiB (85%)
Writing library : x264 core 142 r2409 d6b4e63
Encoding settings : cabac=1 / ref=5 / deblock=1:0:0 / analyse=0x3:0x113 / me=umh / subme=8 / psy=1 / psy_rd=1.00:0.00 / mixed_ref=1 / me_range=16 / chroma_me=1 / trellis=1 / 8x8dct=1 / cqm=0 / deadzone=21,11 / fast_pskip=1 / chroma_qp_offset=-2 / threads=6 / lookahead_threads=1 / sliced_threads=0 / nr=0 / decimate=1 / interlaced=0 / bluray_compat=0 / constrained_intra=0 / bframes=3 / b_pyramid=2 / b_adapt=2 / b_bias=0 / direct=3 / weightb=1 / open_gop=0 / weightp=2 / keyint=250 / keyint_min=25 / scenecut=40 / intra_refresh=0 / rc_lookahead=50 / rc=crf / mbtree=1 / crf=19.0 / qcomp=0.60 / qpmin=0 / qpmax=69 / qpstep=4 / ip_ratio=1.40 / aq=1:1.00
Encoded date : UTC 2014-04-27 13:20:05
Tagged date : UTC 2014-04-27 13:20:14

Audio
ID : 2
Format : AAC
Format/Info : Advanced Audio Codec
Format version : Version 4
Format profile : LC
Format settings, SBR : No
Codec ID : 40
Duration : 1h 38mn
Bit rate mode : Variable
Bit rate : 144 Kbps
Maximum bit rate : 188 Kbps
Channel(s) : 2 channels
Channel positions : Front: L R
Sampling rate : 48.0 KHz
Compression mode : Lossy
Stream size : 99.6 MiB (15%)
Encoded date : UTC 2014-04-27 13:20:13
Tagged date : UTC 2014-04-27 13:20:14



http://i56.fastpic.ru/big/2014/0503/0e/b784aa20b7cc021a20ecac6cbef75c0e.jpg


http://i55.fastpic.ru/big/2014/0503/9b/ab3701e5f5cf41650bd79347d246909b.jpg



DOWNLOAD:
Buy Premium To Support Me & Get Resumable Support & Max Speed


Links are Interchangeable - No Password

Sponsored High Speed Downloads
7736 dl's @ 3578 KB/s
Download Now [Full Version]
6744 dl's @ 3557 KB/s
Download Link 1 - Fast Download
9300 dl's @ 2782 KB/s
Download Mirror - Direct Download



Search More...
Parer's War (2014)

Search free ebooks in ebookee.com!


Links
Download this book

No active download links here?
Please check the description for download links if any or do a search to find alternative books.


Related Books


Comments

No comments for "Parer's War (2014)".


    Add Your Comments
    1. Download links and password may be in the description section, read description carefully!
    2. Do a search to find mirrors if no download links or dead links.
    Back to Top