Percy Jones - MJ12 (2016)

Category: Lyrics


Posted on 2019-04-15, by Germany2020.

Description


1904150656360097.jpg



Artist: Percy Jones
Title: MJ12
Year Of Release: 2016
Label: Gonzo Multimedia[ HST402CD]
Genre: Jazz, Fusion
Quality: FLAC (image + .cue,log,scans)
Total Time: 51:54
Total Size: 316 MB(+3%)




Tracklist
1. Call 911 - 7:45
2. Bad American Dream Pt 2 - 7:14
3. Talk Time - 9:12
4. Magic Mist - 3:10
5. The Wow Signal - 4:35
6. Big Daddy's Road - 6:00
7. The Phantom Maracas - 5:56
8. Guns And Pussy - 4:03
9. Magic Mist Reprise - 3:59
1904150656370109.jpg
personnel :
Fretless Bass - Percy Jones
Saxophone - Chris Bacas
Guitar - David Phelps
Drums - Stephen Moses
1904150656380103.jpg
Exact Audio Copy V1.3 from 2. September 2016
Отчёт EAC об извлечении, выполненном 13. апреля 2019, 21:18
Percy Jones / Mj12
Дисковод: Optiarc DVD RW AD-7263S Adapter: 1 ID: 1
Режим чтения : Достоверность
Использование точного потока : Да
Отключение кэша аудио : Да[/center]

Использование указателей C2 : Нет
Коррекция смещения при чтении : 48
Способность читать области Lead-in и Lead-out : Нет
Заполнение пропущенных сэмплов тишиной : Да
Удаление блоков с тишиной в начале и конце : Нет
При вычислениях CRC использовались нулевые сэмплы : Да
Интерфейс : Встроенный Win32-интерфейс для Win NT/2000
Выходной формат : Пользовательский кодировщик
Выбранный битрейт : 896 kBit/s
Качество : Высокий
Добавление ID3-тега : Да
Утилита сжатия : C:\flac\flac.exe
Дополнительные параметры : -V -8 -T "Date=%year%" -T "Genre=%genre%" %source%
TOC извлечённого CD
Трек | Старт | Длительность | Начальный сектор | Конечный сектор
---------------------------------------------------------------------
1 | 0:00.00 | 7:44.65 | 0 | 34864
2 | 7:44.65 | 7:14.32 | 34865 | 67446
3 | 14:59.22 | 9:12.23 | 67447 | 108869
4 | 24:11.45 | 3:09.64 | 108870 | 123108
5 | 27:21.34 | 4:35.17 | 123109 | 143750
6 | 31:56.51 | 5:59.63 | 143751 | 170738
7 | 37:56.39 | 5:55.60 | 170739 | 197423
8 | 43:52.24 | 4:02.56 | 197424 | 215629
9 | 47:55.05 | 3:58.45 | 215630 | 233524
Характеристики диапазона извлечения и сообщения об ошибках
Выбранный диапазон
Имя файла J:\dvdtmp\2016 Percy Jones - MJ12\2016 Percy Jones - Mj12.wav
Пиковый уровень 100.0 %
Скорость извлечения 1.2 X
Качество диапазона 100.0 %
CRC теста B373064D
CRC копии B373064D
Копирование... OK
Ошибок не произошло

AccurateRip: сводка

Трек 1 : извлечено точно (доверие 4) [64B0787A] (AR v2)
Трек 2 : извлечено точно (доверие 4) [D17F5734] (AR v2)
Трек 3 : извлечено точно (доверие 4) [08AFFFE0] (AR v2)
Трек 4 : извлечено точно (доверие 4) [9097BB6B] (AR v2)
Трек 5 : извлечено точно (доверие 4) [9DD335A1] (AR v2)
Трек 6 : извлечено точно (доверие 4) EB48D79 (AR v2)
Трек 7 : извлечено точно (доверие 4) [62595756] (AR v2)
Трек 8 : извлечено точно (доверие 4) [D092CCA6] (AR v2)
Трек 9 : извлечено точно (доверие 4) [822349E5] (AR v2)

Все треки извлечены точно
Конец отчёта
==== Контрольная сумма отчёта 96CA2C9F7DF5A79F39F1677E8C7E9B4DD6F93A9173B1997304DE87E5ED56107E ====




uploadgig.png
https://uploadgig.com/file/download/f574971f6FBd1538/t6uxc.Percy.Jones..MJ12.2016.rar
rapidgator.png
https://rapidgator.net/file/800b43288bd6c9765c577cd25bde2335/t6uxc.Percy.Jones..MJ12.2016.rar
nitroflare.png
http://nitroflare.com/view/2EBE4286D0AA5F2/t6uxc.Percy.Jones..MJ12.2016.rar


Sponsored High Speed Downloads
9746 dl's @ 2304 KB/s
Download Now [Full Version]
7162 dl's @ 3430 KB/s
Download Link 1 - Fast Download
9132 dl's @ 2202 KB/s
Download Mirror - Direct Download



Search More...
Percy Jones - MJ12 (2016)

Search free ebooks in ebookee.com!


Links
Download this book

No active download links here?
Please check the description for download links if any or do a search to find alternative books.


Related Books


Comments

No comments for "Percy Jones - MJ12 (2016)".


    Add Your Comments
    1. Download links and password may be in the description section, read description carefully!
    2. Do a search to find mirrors if no download links or dead links.
    Back to Top