Phlearn - PRO Dark and Dramatic (2013)

Category: Arts


Posted on 2014-06-16. By anonymous.

Description


Phlearn - PRO Dark and Dramatic (2013)
MP4 | AVC 662kbps | English | 1280x720 | 51fps | 1h 25mins | AAC stereo 157kbps | 709 MB
Genre: Video Training

Learn how to add clouds and dramatically alter the sky of your images to bring depth and mood, even if there is a tree in the way. This Intermediate Photoshop tutorial covers everything you need to know about coloring and stylizing an image.

• Add Dramatic Clouds
• Advanced Retouching
• Liquify Tool
• Custom Photoshop Brushes Included
• Edit From References

This PRO Tutorial covers every detail of this image in full over 1:25 hours of intensive learning! This PRO Turorail includes the following:
Complete Photoshop Tutorial – Over 1:20 Hours of Step-by-Step instruction
Lighting Diagram – Re-create this look easily
Original Images – Follow along with the video
Custom Photoshop Brushes – Making your job easy in Photoshop

Mediainfo:

Format : MPEG-4
Format profile : Base Media / Version 2
Codec ID : mp42
File size : 268 MiB
Duration : 45mn 16s
Overall bit rate : 828 Kbps
Encoded date : UTC 2013-05-06 19:09:49
Tagged date : UTC 2013-05-06 19:19:01
Writing application : HandBrake 0.9.8 2012071800
Video #1
ID : 1
Format : AVC
Format/Info : Advanced Video Codec
Format profile : Main@L3.2
Format settings, CABAC : Yes
Format settings, ReFrames : 4 frames
Codec ID : avc1
Codec ID/Info : Advanced Video Coding
Duration : 45mn 16s
Bit rate mode : Variable
Bit rate : 662 Kbps
Width : 1 280 pixels
Height : 720 pixels
Display aspect ratio : 16:9
Frame rate mode : Variable
Frame rate : 51.745 fps
Minimum frame rate : 3.529 fps
Maximum frame rate : 60.000 fps
Resolution : 24 bits
Colorimetry : 4:2:0
Scan type : Progressive
Bits/(Pixel*Frame) : 0.014
Stream size : 215 MiB (80%)
Writing library : x264 core 120
Encoding settings : cabac=1 / ref=1 / deblock=1:0:0 / analyse=0x1:0x111 / me=hex / subme=2 / psy=1 / psy_rd=1.00:0.00 / mixed_ref=0 / me_range=16 / chroma_me=1 / trellis=0 / 8x8dct=0 / cqm=0 / deadzone=21,11 / fast_pskip=1 / chroma_qp_offset=0 / threads=12 / sliced_threads=0 / nr=0 / decimate=1 / interlaced=0 / bluray_compat=0 / constrained_intra=0 / bframes=3 / b_pyramid=2 / b_adapt=1 / b_bias=0 / direct=1 / weightb=1 / open_gop=0 / weightp=1 / keyint=520 / keyint_min=52 / scenecut=40 / intra_refresh=0 / rc_lookahead=10 / rc=crf / mbtree=1 / crf=22.5 / qcomp=0.60 / qpmin=3 / qpmax=69 / qpstep=4 / ip_ratio=1.40 / aq=1:1.00
Encoded date : UTC 2013-05-06 19:09:49
Tagged date : UTC 2013-05-06 19:19:01
colour_primaries : BT.709-5, BT.1361, IEC 61966-2-4, SMPTE RP177
transfer_characteristics : BT.709-5, BT.1361
matrix_coefficients : BT.709-5, BT.1361, IEC 61966-2-4 709, SMPTE RP177
Audio #2
ID : 2
Format : AAC
Format/Info : Advanced Audio Codec
Format version : Version 4
Format profile : LC
Format settings, SBR : No
Codec ID : 40
Duration : 45mn 16s
Bit rate mode : Variable
Bit rate : 157 Kbps
Maximum bit rate : 190 Kbps
Channel(s) : 2 channels
Channel positions : L R
Sampling rate : 44.1 KHz
Resolution : 16 bits
Stream size : 51.0 MiB (19%)
Encoded date : UTC 2013-05-06 19:09:49
Tagged date : UTC 2013-05-06 19:19:00







No mirrors please

Visit my blog, click here


Sponsored High Speed Downloads
5698 dl's @ 3688 KB/s
Download Now [Full Version]
6530 dl's @ 3042 KB/s
Download Link 1 - Fast Download
5198 dl's @ 2375 KB/s
Download Mirror - Direct Download



Search More...
Phlearn - PRO Dark and Dramatic (2013)

Search free ebooks in ebookee.com!


Links
Download this book

No active download links here?
Please check the description for download links if any or do a search to find alternative books.


Related Books


Comments

No comments for "Phlearn - PRO Dark and Dramatic (2013)".


    Add Your Comments
    1. Download links and password may be in the description section, read description carefully!
    2. Do a search to find mirrors if no download links or dead links.

    required

    required, will not be published

    need login

    required

    Not clear? Click here to refresh.

    Back to Top