Phlearn - PRO Fashion (2013)

Category: Arts


Posted on 2014-06-17. By anonymous.

Description


Phlearn - PRO Fashion (2013)
MP4 | AVC 189kbps | English | 1280x720 | 13fps | 1h 36mins | AAC stereo 144kbps | 231 MB
Genre: Video Training

You will learn how to cut a person out of their background including getting the difficult parts like hair. We cover the most important parts about replacing a sky in a photo including lighting and color. Not only do we include 12 free High Resolution Textures, but we also go in detail on how to use them with any image!

• Cutting People Out
• Working with Type
• Advanced Coloring
• Adding Depth of Field
• Skin Retouching
• Pen Tool

This is a Photoshop tutorial covering how to turn a regular photo into a fashion image. You will learn how to cut a person out of their background including getting the difficult parts like hair. We cover the most important parts about replacing a sky in a photo including lighting and color. You will be successful in changing the sky in any photo after watching this PRO Photoshop Tutorial.
You will also learn how to make and use textures, color an image for fashion, and work with blurring to draw attention to your subject.

Mediainfo:

Format : MPEG-4
Format profile : Base Media / Version 2
Codec ID : mp42
File size : 231 MiB
Duration : 1h 35mn
Overall bit rate : 337 Kbps
Encoded date : UTC 2012-10-16 22:37:51
Tagged date : UTC 2012-10-16 22:43:39
Writing application : HandBrake 0.9.8 2012071800
Video #1
ID : 1
Format : AVC
Format/Info : Advanced Video Codec
Format profile : Main@L3.1
Format settings, CABAC : Yes
Format settings, ReFrames : 4 frames
Codec ID : avc1
Codec ID/Info : Advanced Video Coding
Duration : 1h 35mn
Bit rate mode : Variable
Bit rate : 189 Kbps
Width : 1 280 pixels
Height : 720 pixels
Display aspect ratio : 16:9
Frame rate mode : Variable
Frame rate : 13.079 fps
Minimum frame rate : 2.143 fps
Maximum frame rate : 15.003 fps
Resolution : 24 bits
Colorimetry : 4:2:0
Scan type : Progressive
Bits/(Pixel*Frame) : 0.016
Stream size : 130 MiB (56%)
Writing library : x264 core 120
Encoding settings : cabac=1 / ref=1 / deblock=1:0:0 / analyse=0x1:0x111 / me=hex / subme=2 / psy=1 / psy_rd=1.00:0.00 / mixed_ref=0 / me_range=16 / chroma_me=1 / trellis=0 / 8x8dct=0 / cqm=0 / deadzone=21,11 / fast_pskip=1 / chroma_qp_offset=0 / threads=6 / sliced_threads=0 / nr=0 / decimate=1 / interlaced=0 / bluray_compat=0 / constrained_intra=0 / bframes=3 / b_pyramid=2 / b_adapt=1 / b_bias=0 / direct=1 / weightb=1 / open_gop=0 / weightp=1 / keyint=130 / keyint_min=13 / scenecut=40 / intra_refresh=0 / rc_lookahead=10 / rc=crf / mbtree=1 / crf=25.8 / qcomp=0.60 / qpmin=3 / qpmax=69 / qpstep=4 / ip_ratio=1.40 / aq=1:1.00
Encoded date : UTC 2012-10-16 22:37:51
Tagged date : UTC 2012-10-16 22:43:39
colour_primaries : BT.709-5, BT.1361, IEC 61966-2-4, SMPTE RP177
transfer_characteristics : BT.709-5, BT.1361
matrix_coefficients : BT.709-5, BT.1361, IEC 61966-2-4 709, SMPTE RP177
Audio #2
ID : 2
Format : AAC
Format/Info : Advanced Audio Codec
Format version : Version 4
Format profile : LC
Format settings, SBR : No
Codec ID : 40
Duration : 1h 35mn
Bit rate mode : Variable
Bit rate : 144 Kbps
Maximum bit rate : 187 Kbps
Channel(s) : 2 channels
Channel positions : L R
Sampling rate : 44.1 KHz
Resolution : 16 bits
Stream size : 98.7 MiB (43%)
Encoded date : UTC 2012-10-16 22:37:51
Tagged date : UTC 2012-10-16 22:43:39






No mirrors please

Visit my blog, click here


Sponsored High Speed Downloads
7973 dl's @ 3703 KB/s
Download Now [Full Version]
8749 dl's @ 2435 KB/s
Download Link 1 - Fast Download
7422 dl's @ 2459 KB/s
Download Mirror - Direct Download



Search More...
Phlearn - PRO Fashion (2013)

Search free ebooks in ebookee.com!


Links
Download this book

No active download links here?
Please check the description for download links if any or do a search to find alternative books.


Related Books

  1. Ebooks list page : 27698
  2. 2014-06-19Phlearn - PRO Fashion (2013)
  3. 2017-05-15Phlearn Pro Fashion Trip
  4. 2017-04-18Phlearn Pro - Fashion Trip
  5. 2013-05-15Phlearn Pro - Fashion
  6. 2013-05-12Phlearn PRO Fashion
  7. 2014-06-19Phlearn - PRO Dark and Dramatic (2013)
  8. 2014-06-16Phlearn - PRO Dark and Dramatic (2013)
  9. 2014-06-16Phlearn - PRO Hipster Watch (2013) [repost]
  10. 2014-05-30phlearn - Pro Photoshop Fashion (New Links)
  11. 2014-05-19phlearn - Pro Photoshop Tutorial Fashion
  12. 2014-05-18phlearn - Pro Photoshop : Fashion
  13. 2014-03-07Phlearn Pro - Gold Collection Tutorials 2013 - Removed
  14. 2013-12-04Phlearn Pro - Gold Collection Tutorials 2013 - Removed
  15. 2013-12-02Phlearn Pro - Gold Collection Tutorials 2013 - Removed
  16. 2013-11-30Phlearn Pro - Gold Collection Tutorials 2013 - Removed
  17. 2013-11-28Phlearn Pro - Gold Collection Tutorials 2013 - Removed
  18. 2013-11-17Phlearn Pro - 24 Tutorials Bundle 2013 Collection
  19. 2013-11-14Phlearn Pro 24 Tutorials Bundle 2013
  20. 2013-11-13Phlearn Pro 24 Tutorials Bundle (2013) - Removed

Comments

No comments for "Phlearn - PRO Fashion (2013)".


    Add Your Comments
    1. Download links and password may be in the description section, read description carefully!
    2. Do a search to find mirrors if no download links or dead links.

    required

    required, will not be published

    need login

    required

    Not clear? Click here to refresh.

    Back to Top