Phlearn - PRO Hipster Watch (2013) [repost]

Category: Arts


Posted on 2014-06-16. By anonymous.

Description


Phlearn - PRO Hipster Watch (2013)
MP4 | AVC 1452kbps | English | 1920x1080 | 29.97fps | 2h 30mins | AAC stereo 157kbps | 1.4 GB
Genre: Video Training

This comprehensive tutorial is like Two PRO Tutorials in One. Come on set with world renowned food, beverage, and product photographer Rob Gimm as he takes you through the entire photographic process, then join Aaron in Lightroom and Photoshop to bring everything together. This PRO Tutorial covers every detail of this image in full, over 2:30 hours of intensive learning!

• Work on 60 Megapixel Images
• Included Photography Tutorial
• Detailed Retouching
• Compositing Images
What is Included

This PRO Turorail includes the following:
Complete Photography Tutorial – Over 30 minutes of cut and edited photography instruction
Complete Photoshop Tutorial – Nearly 2 Hours Step-by-Step instruction including compositing and retouching
Lightroom Tutorial – Learn our process as we take you through the entire shoot in Lightroom
Lighting Diagrams – Re-create this look easily
Original Images – Follow along with the video
Custom Photoshop Brushes – Making your job easy in Photoshop

Mediainfo:

Format : MPEG-4
Format profile : Base Media / Version 2
Codec ID : mp42
File size : 341 MiB
Duration : 29mn 34s
Overall bit rate : 1 614 Kbps
Encoded date : UTC 2013-05-24 22:09:26
Tagged date : UTC 2013-05-24 22:18:13
Writing application : HandBrake 0.9.9 2013051800
Video #1
ID : 1
Format : AVC
Format/Info : Advanced Video Codec
Format profile : Main@L4.0
Format settings, CABAC : Yes
Format settings, ReFrames : 4 frames
Codec ID : avc1
Codec ID/Info : Advanced Video Coding
Duration : 29mn 34s
Bit rate mode : Variable
Bit rate : 1 452 Kbps
Width : 1 920 pixels
Height : 1 080 pixels
Display aspect ratio : 16:9
Frame rate mode : Constant
Frame rate : 29.970 fps
Resolution : 24 bits
Colorimetry : 4:2:0
Scan type : Progressive
Bits/(Pixel*Frame) : 0.023
Stream size : 307 MiB (90%)
Writing library : x264 core 130 r2273 b3065e6
Encoding settings : cabac=1 / ref=1 / deblock=1:0:0 / analyse=0x1:0x111 / me=hex / subme=2 / psy=1 / psy_rd=1.00:0.00 / mixed_ref=0 / me_range=16 / chroma_me=1 / trellis=0 / 8x8dct=0 / cqm=0 / deadzone=21,11 / fast_pskip=1 / chroma_qp_offset=0 / threads=12 / lookahead_threads=4 / sliced_threads=0 / nr=0 / decimate=1 / interlaced=0 / bluray_compat=0 / constrained_intra=0 / bframes=3 / b_pyramid=2 / b_adapt=1 / b_bias=0 / direct=1 / weightb=1 / open_gop=0 / weightp=1 / keyint=300 / keyint_min=30 / scenecut=40 / intra_refresh=0 / rc_lookahead=10 / rc=crf / mbtree=1 / crf=25.0 / qcomp=0.60 / qpmin=0 / qpmax=69 / qpstep=4 / vbv_maxrate=20000 / vbv_bufsize=25000 / crf_max=0.0 / nal_hrd=none / ip_ratio=1.40 / aq=1:1.00
Encoded date : UTC 2013-05-24 22:09:26
Tagged date : UTC 2013-05-24 22:18:13
colour_primaries : BT.709-5, BT.1361, IEC 61966-2-4, SMPTE RP177
transfer_characteristics : BT.709-5, BT.1361
matrix_coefficients : BT.709-5, BT.1361, IEC 61966-2-4 709, SMPTE RP177
Audio #2
ID : 2
Format : AAC
Format/Info : Advanced Audio Codec
Format version : Version 4
Format profile : LC
Format settings, SBR : No
Codec ID : 40
Duration : 29mn 34s
Bit rate mode : Variable
Bit rate : 157 Kbps
Maximum bit rate : 270 Kbps
Channel(s) : 2 channels
Channel positions : L R
Sampling rate : 48.0 KHz
Resolution : 16 bits
Stream size : 33.1 MiB (10%)
Encoded date : UTC 2013-05-24 22:09:26
Tagged date : UTC 2013-05-24 22:18:13






No mirrors please

Visit my blog, click here


Sponsored High Speed Downloads
9259 dl's @ 3124 KB/s
Download Now [Full Version]
7336 dl's @ 2078 KB/s
Download Link 1 - Fast Download
5360 dl's @ 2593 KB/s
Download Mirror - Direct Download



Search More...
Phlearn - PRO Hipster Watch (2013) [repost]

Search free ebooks in ebookee.com!


Links
Download this book

No active download links here?
Please check the description for download links if any or do a search to find alternative books.


Related Books


Comments

No comments for "Phlearn - PRO Hipster Watch (2013) [repost]".


    Add Your Comments
    1. Download links and password may be in the description section, read description carefully!
    2. Do a search to find mirrors if no download links or dead links.

    required

    required, will not be published

    need login

    required

    Not clear? Click here to refresh.

    Back to Top