SPA Massage - Sothys Paris [repost]

Category: Family


Posted on 2013-02-07. By anonymous.

Description


SPA Massage - Sothys Paris
DVD5 | English | VOB | 720 x 576 | MPEG2 ~4387 kbps | 25 fps
AC-3 | 192 Kbps | 48.0 KHz | 2 channels | ~2 hours| 4.24 GB
Genre: eLearning Video / Massage

“Magnificent spa Massage. Show Basic methods Relaxation massage, and others. Massage Peeling, Oils, Cosmetic Dirt, salt. General full body massage.”
MediaInfo:
General
Complete name : VTS_08_1.VOB
Format : MPEG-PS
File size : 688 MiB
Duration : 20mn 35s
Overall bit rate mode : Variable
Overall bit rate : 4 672 Kbps
Video #224
ID : 224 (0xE0)
Format : MPEG Video
Format version : Version 2
Format profile : Main@Main
Format settings, BVOP : Yes
Format settings, Matrix : Custom
Format settings, GOP : M=3, N=12
Duration : 20mn 35s
Bit rate mode : Variable
Bit rate : 4 387 Kbps
Maximum bit rate : 7 500 Kbps
Width : 720 pixels
Height : 576 pixels
Display aspect ratio : 4:3
Frame rate : 25.000 fps
Standard : PAL
Color space : YUV
Chroma subsampling : 4:2:0
Bit depth : 8 bits
Scan type : Interlaced
Scan order : Bottom Field First
Compression mode : Lossy
Bits/(Pixel*Frame) : 0.423
Stream size : 646 MiB (94%)
Audio #189-128
ID : 189 (0xBD)-128 (0x80)
Format : AC-3
Format/Info : Audio Coding 3
Mode extension : CM (complete main)
Muxing mode : DVD-Video
Duration : 20mn 34s
Bit rate mode : Constant
Bit rate : 192 Kbps
Channel(s) : 2 channels
Channel positions : Front: L R
Sampling rate : 48.0 KHz
Bit depth : 16 bits
Compression mode : Lossy
Stream size : 28.3 MiB (4%)
Screenshots







For more, Visit my AH-blog

no mirrors please, Follow The Rules


Sponsored High Speed Downloads
5084 dl's @ 2426 KB/s
Download Now [Full Version]
6091 dl's @ 2738 KB/s
Download Link 1 - Fast Download
6585 dl's @ 3885 KB/s
Download Mirror - Direct Download



Search More...
SPA Massage - Sothys Paris [repost]

Search free ebooks in ebookee.com!


Links
Download this book

No active download links here?
Please check the description for download links if any or do a search to find alternative books.


Related Books


Comments

No comments for "SPA Massage - Sothys Paris [repost]".


    Add Your Comments
    1. Download links and password may be in the description section, read description carefully!
    2. Do a search to find mirrors if no download links or dead links.
    Back to Top