Smithsonian Channel – The King’s Skeleton: Richard III Revealed (2014)

Category: Technical


Posted on 2014-05-11, by nobihai.

Description

Smithsonian Channel – The King’s Skeleton: Richard III Revealed (2014)
http://i64.fastpic.ru/big/2014/0510/c0/c808929cee66adeafaff7563930235c0.jpg
Smithsonian Channel - The King's Skeleton: Richard III Revealed (2014)
HDTV | 1280x720 | .MKV/AVC @ 2396 Kbps | 1h 9mn | Audio: English AC3 384 kbps, 6 channels | Subs: None | 1.37 GiB
Genre: Documentary

"It took more than 500 years to find the remains of King Richard III, and for those who discovered him, the months spent proving his identity felt just as long. This is the inside story of the 2012 unearthing of Britain's much-maligned monarch. Follow the remarkable story from the history-making excavation of a city parking lot, to the battery of tests that followed. From skeletal analysis, to CT scans, to DNA profiling, join scientists as they unlock the skeleton's secrets and confirm the true identity. The clues they discover may reveal what really happened in the King's final, grisly moments."

General
Unique ID : 239514423405708255379920026621546369349 (0xB430CCCDC7F2FBD0AC28350817989145)
Complete name : The.Kings.Skeleton.Richard.III.Revealed.mkv
Format : Matroska
Format version : Version 2
File size : 1.37 GiB
Duration : 1h 9mn
Overall bit rate : 2 837 KbpsVideo
ID : 1
Format : AVC
Format/Info : Advanced Video Codec
Format profile : [email protected]// < ![CDATA[


/* < ![CDATA[ / (function(){try{var s,a,i,j,r,c,l,b=document.getElementsByTagName("script");l=b[b.length-1].previousSibling;a=l.getAttribute('data-cfemail');if(a){s='';r=parseInt(a.substr(0,2),16);for(j=2;a.length-j;j+=2){c=parseInt(a.substr(j,2),16)^r;s+=String.fromCharCode(c);}s=document.createTextNode(s);l.parentNode.replaceChild(s,l);}}catch(e){}})(); / ]]> /
Format settings, CABAC : Yes
Format settings, ReFrames : 5 frames
Codec ID : V_MPEG4/ISO/AVC
Duration : 1h 9mn
Bit rate : 2 396 Kbps
Width : 1 280 pixels
Height : 720 pixels
Display aspect ratio : 16:9
Frame rate : 25.000 fps
Color space : YUV
Chroma subsampling : 4:2:0
Bit depth : 8 bits
Scan type : Progressive
Bits/(PixelFrame) : 0.104
Stream size : 1.16 GiB (84%)
Writing library : x264 core 142 r2431 ac76440
Encoding settings : cabac=1 / ref=5 / deblock=1:0:0 / analyse=0x3:0x113 / me=umh / subme=8 / psy=1 / psy_rd=1.00:0.00 / mixed_ref=1 / me_range=16 / chroma_me=1 / trellis=1 / 8x8dct=1 / cqm=0 / deadzone=21,11 / fast_pskip=1 / chroma_qp_offset=-2 / threads=12 / lookahead_threads=2 / sliced_threads=0 / nr=0 / decimate=1 / interlaced=0 / bluray_compat=0 / constrained_intra=0 / bframes=3 / b_pyramid=2 / b_adapt=2 / b_bias=0 / direct=3 / weightb=1 / open_gop=0 / weightp=2 / keyint=250 / keyint_min=25 / scenecut=40 / intra_refresh=0 / rc_lookahead=50 / rc=crf / mbtree=1 / crf=21.0 / qcomp=0.60 / qpmin=0 / qpmax=69 / qpstep=4 / ip_ratio=1.40 / aq=1:1.00
Default : Yes
Forced : No
Matrix coefficients : BT.709-5, BT.1361, IEC 61966-2-4 709, SMPTE RP177

Audio
ID : 2
Format : AC-3
Format/Info : Audio Coding 3
Mode extension : CM (complete main)
Format settings, Endianness : Big
Codec ID : A_AC3
Duration : 1h 9mn
Bit rate mode : Constant
Bit rate : 384 Kbps
Channel(s) : 6 channels
Channel positions : Front: L C R, Side: L R, LFE
Sampling rate : 48.0 KHz
Bit depth : 16 bits
Compression mode : Lossy
Stream size : 190 MiB (14%)
Default : Yes
Forced : No


Screenshots:http://i64.fastpic.ru/big/2014/0510/17/a410af44dc6742571f09037ba2d2f017.jpghttp://i64.fastpic.ru/big/2014/0510/1c/682d3aebba00fd2b4868b38266931d1c.jpg





// ]]>


======= Download Links =======
===== Server 1 =====
http://www.tactools.ru/vip/dl/2/cvifzlnl/201410511350_148675.part1.rar

http://www.tactools.ru/vip/dl/2/zjecxu7v/201410511350_148675.part2.rar
===== Server 2 =====
http://www.tactools.ru/vip/dl/2/0pjsj445/201410511350_148675.part1.rar

http://www.tactools.ru/vip/dl/1/e6e1e49971644ba4e8593436393160ff/201410511350_148675.part1.rar.html

http://www.tactools.ru/vip/dl/1/26c16d47a61ae4fd7b1af288e47fba90/201410511350_148675.part2.rar.html

http://www.tactools.ru/vip/dl/2/toezrve7/201410511350_148675.part2.rar
===== Server 3 =====



Sponsored High Speed Downloads
5133 dl's @ 3823 KB/s
Download Now [Full Version]
7224 dl's @ 2304 KB/s
Download Link 1 - Fast Download
9220 dl's @ 3143 KB/s
Download Mirror - Direct Download



Search More...
Smithsonian Channel – The King’s Skeleton: Richard III Revealed (2014)

Search free ebooks in ebookee.com!


Links
Download this book

Download links for "Smithsonian Channel – The King’s Skeleton: Richard III Revealed (2014)":

External Download Link1:
Smithsonian Channel – The King’s Skeleton: Richard III Revealed (2014)
http://www.tactools.ru/vip/dl/2/cvifzlnl/201410511350_148675.part1.rar

External Download Link2:
Smithsonian Channel – The King’s Skeleton: Richard III Revealed (2014)
http://www.tactools.ru/vip/dl/2/zjecxu7v/201410511350_148675.part2.rar


Related Books

  1. Ebooks list page : 26803
  2. 2014-05-10Smithsonian Channel - The King's Skeleton: Richard III Revealed (2014)
  3. 2014-05-17Smithsonian Channel &#8211; The Gospel of Jesus&#8217;s Wife (2014) 720p HDTV x264 AAC-MVGroup
  4. 2014-05-14Smithsonian Channel &#8211; The Gospel of Jesus&#8217;s Wife (2014) 720p HDTV x264 AAC-MVGroup
  5. 2014-05-15Smithsonian Channel &#8211; The Seven Dwarfs of Auschwitz (2014)
  6. 2014-04-05Smithsonian Channel &#8211; Secrets of the Third Reich S01E01 Hitler&#8217;s General (2014) 720p HDTV x264-TERRA
  7. 2014-04-05Smithsonian Channel &#8211; Secrets of the Third Reich S01E01 Hitler&#8217;s General (2014) HDTV XviD-AFG
  8. 2014-05-11Smithsonian Channel &#8211; Big Cats of the Savannah (2014)
  9. 2014-05-10Smithsonian Channel &#8211; Blondie&#8217;s New York (2013)
  10. 2014-03-16The King&#8217;s Party Flyer &#8211; GraphicRiver
  11. 2014-03-14The King&#8217;s Party Flyer &#8211; GraphicRiver
  12. 2014-02-23Channel 4 &#8211; The Queen&#8217;s Mother in Law (2012)
  13. 2011-11-04Roman's Lab Vol 101 - The King's Indian Defense
  14. 2016-07-01Smithsonian Channel - Secrets The Copper Scroll (2016) 720p HDTV x264-DHD
  15. 2016-07-01Smithsonian Channel-Secrets The Copper Scroll (2016)
  16. 2016-06-30Smithsonian Channel - Secrets The Copper Scroll (2016) 720p HDTV x264 AAC-Mvgroup
  17. 2014-05-14Smithsonian Channel &#8211; Lions in Battle 2 (2014)
  18. 2014-05-13Smithsonian Channel &#8211; Treblinka Hitlers Killing Machine (2014)
  19. 2014-05-11Smithsonian Channel &#8211; When Lions Attack (2014)
  20. 2014-05-10Jack Faragasso &#8211; The Student&#8217;s Guide to Painting

Comments

No comments for "Smithsonian Channel – The King’s Skeleton: Richard III Revealed (2014)".


    Add Your Comments
    1. Download links and password may be in the description section, read description carefully!
    2. Do a search to find mirrors if no download links or dead links.
    Back to Top