Top Pro Stencil Techniques by Crosseyed (Repost)

Category: Arts


Posted on 2013-10-31. By anonymous.

Description


Top Pro Stencil Techniques by Crosseyed (Repost)
DVDRip | English | AVI/DIVX 29.970 fps 1200 Kbps | 720x480 | MP3 128 Kbps 48.0 khz | 50mn 56s | 489 MB
Genre: Video Training

“"In custom painting, there&s a simple, and true, rule of thumb: The faster you complete a job, the more money you&ll make. In the courseof painting a dramatic evil skull, Cross-Eyed demonstrates everything you need to know about hand cutting stencils for faster execution of artwork, special f/x, flexibility, design accuracy, and precision.”
MediaInfo:
General
Complete name : Top Pro Stencil Techniques, by Crosseyed.avi
Format : AVI
Format/Info : Audio Video Interleave
File size : 489 MiB
Duration : 50mn 56s
Overall bit rate : 1 342 Kbps

Video
ID : 0
Format : MPEG-4 Visual
Format profile : Simple@L1
Format settings, BVOP : No
Format settings, QPel : No
Format settings, GMC : No warppoints
Format settings, Matrix : Default (H.263)
Codec ID : DIVX
Codec ID/Info : Project Mayo
Codec ID/Hint : DivX 4
Duration : 50mn 56s
Source duration : 50mn 56s
Bit rate : 1 200 Kbps
Width : 720 pixels
Height : 480 pixels
Display aspect ratio : 2.000
Frame rate : 29.970 fps
Standard : NTSC
Color space : YUV
Chroma subsampling : 4:2:0
Bit depth : 8 bits
Scan type : Progressive
Compression mode : Lossy
Bits/(Pixel*Frame) : 0.116
Stream size : 437 MiB (89%)
Writing library : avc2.0.11.1110

Audio
ID : 1
Format : MPEG Audio
Format version : Version 1
Format profile : Layer 3
Mode : Joint stereo
Codec ID : 55
Codec ID/Hint : MP3
Duration : 50mn 56s
Source duration : 50mn 56s
Bit rate mode : Constant
Bit rate : 128 Kbps
Channel(s) : 2 channels
Sampling rate : 48.0 KHz
Compression mode : Lossy
Stream size : 46.6 MiB (10%)
Alignment : Aligned on interleaves
Interleave, duration : 24 ms (0.72 video frame)

Screenshots




no mirrors please, Follow The Rules
Visit Polik88 Blog Here
no password



Sponsored High Speed Downloads
6134 dl's @ 2701 KB/s
Download Now [Full Version]
7226 dl's @ 2536 KB/s
Download Link 1 - Fast Download
5392 dl's @ 3514 KB/s
Download Mirror - Direct Download



Search More...
Top Pro Stencil Techniques by Crosseyed (Repost)

Search free ebooks in ebookee.com!


Links
Download this book

No active download links here?
Please check the description for download links if any or do a search to find alternative books.


Related Books


Comments

No comments for "Top Pro Stencil Techniques by Crosseyed (Repost)".


    Add Your Comments
    1. Download links and password may be in the description section, read description carefully!
    2. Do a search to find mirrors if no download links or dead links.
    Back to Top