Udemy - Essential Music Guide Learn Ableton Live (2013)

Category: Lyrics


Posted on 2014-05-02. By anonymous.

Description


Udemy - Essential Music Guide Learn Ableton Live (2013)
MP4 | AVC 576kbps | English | 1280x720 | 30fps | 3h 08mins | AAC stereo 61kbps | 700 MB
Genre: Video Training

With early support from the Laidback Luke Forum, the Essential Music Guide will teach students of both beginner and intermediate levels the necessary steps towards producing electronic music in Ableton Live. With this course you will be able to create professionally sounding electronic music from start to finish. Easy to Follow! Have you recently made the switch to Ableton Live? Or are you just starting out in the world of music production? The steps towards creating professional electronic music can be found all over the web but with the Essential Music Guide exclusively on Udemy you gain access to years of production knowledge using Ableton Live across various genres. Learn from professional producer/instructor Castilian with over 10,000 views on Soundcloud and over 6 years of music production experience!

Each Step of the Way!
The course is designed for students of both beginner and intermediate levels interested in learning music production without having to rely on the trial and error of doing it alone.
Carefully Organized Sections

The course is structured into 6 sections each targeting a specific area of music production to help students learn how to produce professionally sounding electronic music. The sections cover a wide range of general topics including...
•General layout of Ableton
•Keep the Beat Going Drum Production
•Sound design with Massive and Sylenth1
•Piano in Ableton Live
•Audio Effect Tools
•Layering
•Session View
•Mastering
•Mixing

Providing an extensive overview on how to use various audio effects such as Compression, Limiting, Delay, Reverb, Stereo-Imaging, Side-Chain Compression and More! Learn premium sound design techniques on world renowned Plug-ins, Massive and Sylenth1. Learn Drum production techniques to create punchy sounding drums that cut through heavy sounds in your mix!
Practice Makes Perfect
Music Production often takes lots of time to learn and the Essential Music Guide is designed to guide students through the process of learning music production without having to work alone!
Exclusive Lessons on All major Plug-In's
The steps to learning music production are in your hands, don't hesitate give it a try and create music you can share with the world!

section 1 essentials to music production in ableton
lecture 1 ableton live layout
lecture 2 audio preferences
lecture 3 keyboard shortcuts
lecture 4 difference between 32 vs 64
lecture 5 a lesson on volume
lecture 6 session view
lecture 7 introduction to plug ins

section 2 essentials drums keep the beat going
lecture 10 making fat sounding kicks
lecture 11 kick frequency
lecture 12 making punchy snares that stand out
lecture 13 keeping track of samples
lecture 14 drum techniques bringing it altogether
lecture 8 foundations of electronic drum production
lecture 9 using drum racks in ableton live

section 3 essential sound design
lecture 15 massive layout
lecture 16 massive synth and plucks
lecture 17 massive bass sounds
lecture 18 sub bass in massive
lecture 19 layout of sylenth1
lecture 20 learning plucks in sylenth1
lecture 21 white noise and crashes

section 4 layering and melodies
lecture 22 layering synths for fullness
lecture 23 using piano in ableton

section 5 essential audio getting the right sound
lecture 24 adding depth to a melody with reverb
lecture 25 side chaining and lfo tool
lecture 26 automation techniques
lecture 27 how to make wider sounds
lecture 28 using an equalizer to maximize sound
lecture 29 saving cpu
lecture 30 steps towards using a limiter
lecture 31 izotope ozone layout

section 6 the finish line
lecture 32 mixing balancing sound levels properly
lecture 33 how to stop clipping
lecture 34 foundations of mastering
lecture 35 exporting and enjoy

Mediainfo:

Format : MPEG-4
Format profile : Base Media
Codec ID : isom
File size : 31.4 MiB
Duration : 6mn 51s
Overall bit rate : 640 Kbps
Encoded date : UTC 2013-12-26 01:08:10
Tagged date : UTC 2013-12-26 01:08:10
Video #1
ID : 1
Format : AVC
Format/Info : Advanced Video Codec
Format profile : Baseline@L3.1
Format settings, CABAC : No
Format settings, ReFrames : 3 frames
Codec ID : avc1
Codec ID/Info : Advanced Video Coding
Duration : 6mn 51s
Bit rate mode : Variable
Bit rate : 576 Kbps
Maximum bit rate : 8 722 Kbps
Width : 1 280 pixels
Height : 720 pixels
Display aspect ratio : 16:9
Frame rate mode : Constant
Frame rate : 30.000 fps
Resolution : 24 bits
Colorimetry : 4:2:0
Scan type : Progressive
Bits/(Pixel*Frame) : 0.021
Stream size : 28.3 MiB (90%)
Writing library : Zencoder Video Encoding System
Encoded date : UTC 2013-12-26 01:05:58
Tagged date : UTC 2013-12-26 01:08:10
Audio #2
ID : 2
Format : AAC
Format/Info : Advanced Audio Codec
Format version : Version 4
Format profile : LC
Format settings, SBR : No
Codec ID : 40
Duration : 6mn 51s
Bit rate mode : Variable
Bit rate : 61.1 Kbps
Maximum bit rate : 84.6 Kbps
Channel(s) : 2 channels
Channel positions : L R
Sampling rate : 44.1 KHz
Resolution : 16 bits
Stream size : 3.00 MiB (10%)
Encoded date : UTC 2013-12-26 01:08:10
Tagged date : UTC 2013-12-26 01:08:10







No mirrors please

Visit my blog, click here


Sponsored High Speed Downloads
9360 dl's @ 2606 KB/s
Download Now [Full Version]
5342 dl's @ 2973 KB/s
Download Link 1 - Fast Download
5719 dl's @ 3243 KB/s
Download Mirror - Direct Download



Search More...
Udemy - Essential Music Guide Learn Ableton Live (2013)

Search free ebooks in ebookee.com!


Links
Download this book

No active download links here?
Please check the description for download links if any or do a search to find alternative books.


Related Books

  1. Ebooks list page : 26593
  2. 2014-05-07Udemy - Essential Music Guide Learn Ableton Live (2013) - Removed
  3. 2014-05-05Udemy - Essential Music Guide Learn Ableton Live (2013) - Removed
  4. 2014-05-02Udemy - Essential Music Guide Learn Ableton Live (2013) - Removed
  5. 2014-05-11Udemy - Essential Music Guide Learn Ableton Live - Removed
  6. 2014-05-07Udemy - Essential Music Guide Learn Ableton Live - Removed
  7. 2014-05-03Udemy - Essential Music Guide Learn Ableton Live - Removed
  8. 2014-05-02Udemy - Essential Music Guide Learn Ableton Live
  9. 2014-04-28Udemy - Essential Music Guide Learn Ableton Live
  10. 2014-05-08UdemyEssential Music Guide Learn Ableton Live - Removed
  11. 2014-05-03Udemy.com - Essential Music Guide: Learn Ableton Live - Removed
  12. 2014-04-28Udemy.com - Essential Music Guide: Learn Ableton Live - Removed
  13. 2017-04-19Udemy com Music Production in Ableton Live 9 The Complete Course
  14. 2010-02-10Computer Music Special 37: Ableton Live - The Essential Guide 2009
  15. 2010-02-06Computer Music Special 37: Ableton Live - The Essential Guide 2009
  16. 2010-02-06Computer Music Special 37: Ableton Live - The Essential Guide 2009
  17. 2010-02-03Computer Music Special 37: Ableton Live - The Essential Guide 2009
  18. 2018-11-06Music Production in Ableton Live 9 - 5 Step Beginners Guide
  19. 2018-08-11Music Production in Ableton Live 9 - 5 Step Beginners Guide
  20. 2018-05-23Music Production in Ableton Live 9 - 5 Step Beginners Guide

Comments

No comments for "Udemy - Essential Music Guide Learn Ableton Live (2013)".


    Add Your Comments
    1. Download links and password may be in the description section, read description carefully!
    2. Do a search to find mirrors if no download links or dead links.
    Back to Top