Udemy Learn 12 quot Must Know quot Beginner Rock Guitar Riffs

Category: Technical


Posted on 2017-04-19, by nobihai.

Description

Image Udemy Learn 12 quot Must Know quot Beginner Rock Guitar Riffs|5.11 GB Description   Description: This course begins with an explanation of how to make best use out of the course. You´ll be provided a 42 page e-book that corresponds to some of the lessons within the course. You´ll realise that many of the top rock riffs use simple “power-chords" and chord progressions that are at your access right now. I walk you through all the elements that you´ll need to know in order to play along with ease. We will take a in-depth look into how the electric guitar and amplifier work. I´ll also show you in detail, how to get a crunchy sounding rock tone, so that you ´ll sound like the masters when you sit down to play. Each short, intense (and sometimes funny) lecture helps you learn about different aspects you will need to make the riffs sound amazing. Every lecture has a supported guitar play-along, so that you can watch and listen to me, while playing along at home. This way, you´ll never get lost, and you can listen to the track as many time as you need to. I also teach you some really effective finger exercises that are used by all the top players in the world. You have the opportunity to become the guitar player you have always dreamed of. The lessons in the course are designed to teach rock riffs that nobody can resist. After taking this course, friends and family will be begging you to "play just one more, please!" Throughout the course, you'll have the opportunity to ask me questions and get quick support. This way, you´re never alone, I´m always cheering you on! By the end of this course, you'll have a clear understanding of to make your guitar sound great and you´ll be equipped with epic riffs and useful exercises to insure your success! Tech Specs: General Complete name                            : G:\Utorrent\Udemy - Learn 12 Must Know Beginner Rock Guitar Riffs\1_-_Introduction\1_-_Introduction.mp4 Format                                   : MPEG-4 Format profile                           : Base Media Codec ID                                 : isom (isom/avc1/mp42) File size                                : 43.6 MiB Duration                                 : 1mn 47s Overall bit rate mode                    : Variable Overall bit rate                         : 3 413 Kbps Encoded date                             : UTC 2015-09-22 18:42:11 Tagged date                              : UTC 2015-09-22 18:42:11 Video ID                                       : 1 Format                                   : AVC Format/Info                              : Advanced Video Codec Format profile                           : Baseline@L3.1 Format settings, CABAC                   : No Format settings, ReFrames                : 3 frames Format settings, GOP                     : M=1, N=50 Codec ID                                 : avc1 Codec ID/Info                            : Advanced Video Coding Duration                                 : 1mn 47s Bit rate                                 : 3 354 Kbps Maximum bit rate                         : 6 309 Kbps Width                                    : 1 280 pixels Height                                   : 720 pixels Display aspect ratio                     : 16:9 Frame rate mode                          : Constant Frame rate                               : 25.000 fps Color space                              : YUV Chroma subsampling                       : 4:2:0 Bit depth                                : 8 bits Scan type                                : Progressive Bits/(Pixel*Frame)                       : 0.146 Stream size                              : 42.8 MiB (98%) Writing library                          : Zencoder Video Encoding System Encoded date                             : UTC 2015-09-22 18:41:52 Tagged date                              : UTC 2015-09-22 18:42:11 Color range                              : Limited Color primaries                          : BT.709 Transfer characteristics                 : BT.709 Matrix coefficients                      : BT.709 Audio ID                                       : 2 Format                                   : AAC Format/Info                              : Advanced Audio Codec Format profile                           : LC Codec ID                                 : 40 Duration                                 : 1mn 47s Bit rate mode                            : Variable Bit rate                                 : 59.0 Kbps Maximum bit rate                         : 63.2 Kbps Channel(s)                               : 2 channels Channel positions                        : Front: L R Sampling rate                            : 48.0 KHz Frame rate                               : 46.875 fps (1024 spf) Compression mode                         : Lossy Stream size                              : 771 KiB (2%) Encoded date                             : UTC 2015-09-22 18:41:52 Tagged date                              : UTC 2015-09-22 18:42:11 URL:https://www.udemy.com/beginner-electric-guitar/#curriculum
http://www.rapidsave.org/vip/dl/6/oyzsxswo2d/2017253123638_259667.part3.rar http://www.rapidsave.org/vip/dl/6/8wf2wr3h1v/2017253123638_259667.part6.rar http://www.rapidsave.org/vip/dl/6/akf06rewfi/2017253123638_259667.part2.rar http://www.rapidsave.org/vip/dl/6/m7hb22przv/2017253123638_259667.part1.rar http://www.rapidsave.org/vip/dl/6/mv14dypyxz/2017253123638_259667.part5.rar http://www.rapidsave.org/vip/dl/6/rij2g4v2if/2017253123638_259667.part4.rar


Sponsored High Speed Downloads
9593 dl's @ 3384 KB/s
Download Now [Full Version]
6827 dl's @ 3191 KB/s
Download Link 1 - Fast Download
7557 dl's @ 2320 KB/s
Download Mirror - Direct Download



Search More...
Udemy Learn 12 quot Must Know quot Beginner Rock Guitar Riffs

Search free ebooks in ebookee.com!


Links
Download this book

No active download links here?
Please check the description for download links if any or do a search to find alternative books.


Related Books

  1. Ebooks list page : 31454
  2. 2019-02-04GUITAR LEARN 12 MUST KNOW BEGINNER ROCK GUITAR RIFFS TUTORIAL COMPRISED
  3. 2017-11-08[PDF] Guitar: Learn 12 Must Know Beginner Rock Guitar Riffs
  4. 2019-02-04GUITAR LEARN 12 MUST KNOW STRUMMING PATTERNS FOR GUITAR TUTORIAL COMPRISED
  5. 2017-11-17[PDF] Guitar - Learn 12 Must Know Strumming Patterns For Guitar
  6. 2017-11-03[PDF] Udemy - Learn To Manage A Meeting Like A Rock Star
  7. 2012-03-10Daniela Gobetti, "Must-Know Italian: 4,000 Words That Give You the Power to Communicate"
  8. 2011-02-06Eliane Kurbegov "Must-Know French: Essential Words For A Successful Vocabulary"
  9. 2010-01-28Brian and Janet Stoppee, "Stoppees’ Guide to Photography and Light: What Digital Photographers, Illustrators, and Creative Professionals Must Know"
  10. 2019-03-24Udemy - Learn React & Redux From Beginner To Paid Professional
  11. 2019-03-23Truefire Fareed Haque 30 Beginner Jazz Licks You Must Know TUTORiAL-ADSR
  12. 2019-03-20Truefire Fareed Haque 30 Beginner Jazz Licks You Must Know TUTORiAL-ADSR
  13. 2019-01-25Learn Hebrew Must-Know Hebrew Slang Words & Phrases, Extended Version [Audiobook]
  14. 2019-01-25Learn Dutch Must-Know Dutch Slang Words & Phrases, Extended Version [Audiobook]
  15. 2019-01-15Learn Bulgarian Must-Know Bulgarian Slang Words & Phrases, Extended Version [Audiobook]
  16. 2019-01-15Learn Finnish Must-Know Finnish Slang Words & Phrases, Extended Version [Audiobook]
  17. 2019-01-11Learn Finnish Must-Know Finnish Slang Words & Phrases, Extended Version [Audiobook]
  18. 2019-01-10Learn Dutch Must-Know Dutch Slang Words & Phrases, Extended Version [Audiobook]
  19. 2019-01-10Learn Hebrew Must-Know Hebrew Slang Words & Phrases, Extended Version [Audiobook]
  20. 2019-01-10Learn Bulgarian Must-Know Bulgarian Slang Words & Phrases, Extended Version [Audiobook]

Comments

No comments for "Udemy Learn 12 quot Must Know quot Beginner Rock Guitar Riffs".


    Add Your Comments
    1. Download links and password may be in the description section, read description carefully!
    2. Do a search to find mirrors if no download links or dead links.
    Back to Top