Viscorbel - Creating V-Ray Materials Volume 02 (2012) (Repost)

Category: Arts


Posted on 2013-08-06. By anonymous.

Description


Viscorbel - Creating V-Ray Materials Volume 02 (2012) (Repost)
English | MP4 | 1280x720 | AVC 280 Kbps 15.000 fps | AAC 126 Kbps 44.1 khz | 4h 30mn | 1.94 GB
Genre: Video Training, Drawing, Painting, Design

“You will learn how to create exterior materials like:

- Road
- wet road
- pavement
- stone
- brick
- corrugated metal
- rusty metal
- tree bark / leaves / needles
- weathered planks
- curb
- concrete
- wire mesh / extended metal
- grass (displaced and geometric)
- swimming pool (water and tiles)

Using the techniques shown in this video you can create countless variations of these materials to suit your projects! This time I’m also showing how to render out UVW templates and paint custom maps for those special objects where simple tileable materials will not work. Displacement map creation from photos and from 3D geometry is also included.”
MediaInfo:
General
Complete name : Viscorbel - Creating V-Ray Materials_Vol2\00_Intro\00_Intro.mp4
Format : MPEG-4
Format profile : Base Media / Version 2
Codec ID : mp42
File size : 10.1 MiB
Duration : 3mn 16s
Overall bit rate : 431 Kbps
Encoded date : UTC 2012-06-13 11:52:06
Tagged date : UTC 2012-07-09 16:52:58

Video
ID : 1
Format : AVC
Format/Info : Advanced Video Codec
Format profile : High@L3.1
Format settings, CABAC : Yes
Format settings, ReFrames : 4 frames
Codec ID : avc1
Codec ID/Info : Advanced Video Coding
Duration : 3mn 16s
Source duration : 3mn 16s
Bit rate mode : Variable
Bit rate : 280 Kbps
Width : 1 280 pixels
Height : 720 pixels
Display aspect ratio : 16:9
Frame rate mode : Constant
Frame rate : 15.000 fps
Color space : YUV
Chroma subsampling : 4:2:0
Bit depth : 8 bits
Scan type : Progressive
Bits/(Pixel*Frame) : 0.020
Stream size : 6.55 MiB (65%)
Source stream size : 7.10 MiB (70%)
Language : English
Encoded date : UTC 2012-06-13 11:52:06
Tagged date : UTC 2012-06-13 11:52:06
mdhd_Duration : 196264
Color primaries : BT.709-5, BT.1361, IEC 61966-2-4, SMPTE RP177
Transfer characteristics : BT.709-5, BT.1361
Matrix coefficients : BT.709-5, BT.1361, IEC 61966-2-4 709, SMPTE RP177

Audio
ID : 2
Format : AAC
Format/Info : Advanced Audio Codec
Format profile : LC
Codec ID : 40
Duration : 3mn 16s
Source duration : 3mn 16s
Bit rate mode : Constant
Bit rate : 126 Kbps
Channel(s) : 2 channels
Channel positions : Front: L R
Sampling rate : 44.1 KHz
Compression mode : Lossy
Stream size : 2.94 MiB (29%)
Source stream size : 2.94 MiB (29%)
Language : English
Encoded date : UTC 2012-06-13 11:52:06
Tagged date : UTC 2012-06-13 11:52:06
mdhd_Duration : 196303

Screenshots




no mirrors please, Follow The Rules
Visit Polik88 Blog Here
no password



Sponsored High Speed Downloads
8404 dl's @ 2372 KB/s
Download Now [Full Version]
9478 dl's @ 3122 KB/s
Download Link 1 - Fast Download
9591 dl's @ 3257 KB/s
Download Mirror - Direct Download



Search More...
Viscorbel - Creating V-Ray Materials Volume 02 (2012) (Repost)

Search free ebooks in ebookee.com!


Links
Download this book

No active download links here?
Please check the description for download links if any or do a search to find alternative books.


Related Books


Comments

No comments for "Viscorbel - Creating V-Ray Materials Volume 02 (2012) (Repost)".


    Add Your Comments
    1. Download links and password may be in the description section, read description carefully!
    2. Do a search to find mirrors if no download links or dead links.

    required

    required, will not be published

    need login

    required

    Not clear? Click here to refresh.

    Back to Top