Yoga Journal Presents: Iyengar Intensive at Estes Park (5 DVD Set) (Repost)

Category: Home


Posted on 2014-06-19. By anonymous.

Description


Yoga Journal Presents: Iyengar Intensive at Estes Park (5 DVD Set) (Repost)
DVDRip | English | AVI/XviD 29.970 fps 960 Kbps | 640x480 | MP3 128 Kbps 44.1 khz | Run Time: 1500 minutes | 11.24 GB
Genre: Video Training

“Live and uncut, over 25 hours of B.K.S Iyengar's latest teaching from the Yoga Journal 2005 Estes Park Conference. An essential DVD for all Iyengar students and teachers!
In September 2005, Sri B.K.S. Iyengar participated in a much-heralded intensive dedicated to his teaching, held as part of Yoga Journal’s Estes Park Conference. Along with some of Mr. Iyengar’s senior teachers, he provided those assembled with his latest teachings in asana and pranayama. He also made himself accessible to his students through a variety of talks and question and answer sessions.
The five DVD set, incorporating 25 hours of content, captures each session of this important event. It displays Mr. Iyengar’s passion, vitality, and mastery of yoga. Blending humor and wisdom, Mr. Iyengar’s presence was even more astounding given his 86 years of age. It was possibly his last visit to the United States, and one that can be thoroughly savored and continually revisited in this DVD format.

Mr. Iyengar’s teaching and presence is incorporated in every session of this DVD, including:
-Three asana classes (580 minutes)
-The pranayama classes (282 minutes)
-Q&A session with Mr. Iyengar (150 minutes)
-Mr. Iyengar’s Conference Keynote (62 minutes)
-Conversation with Mr. Iyengar (92 minutes)
-Master classes with master teachers Manouso Manos and Patricia Walden, which include Mr. Iyengar (257 minutes)
-Performance by The Yoga Troup (40 minutes)”
MediaInfo:
General
Complete name : Yoga Journal Presents Iyengar Intensive at Estes Park - 5 DVD Set\Disc 1\1-1-Iyengar1.avi
Format : AVI
Format/Info : Audio Video Interleave
Format profile : OpenDML
File size : 1.52 GiB
Duration : 3h 17mn
Overall bit rate : 1 103 Kbps
Movie name : 1-1-Iyengar1.avi
Director : created.with.SUPER(C).v2011.bld.48
Writing application : SUPER(C)

Video
ID : 0
Format : MPEG-4 Visual
Format profile : Simple@L3
Format settings, BVOP : No
Format settings, QPel : No
Format settings, GMC : No warppoints
Format settings, Matrix : Default (H.263)
Codec ID : XVID
Codec ID/Hint : XviD
Duration : 3h 17mn
Bit rate : 960 Kbps
Width : 640 pixels
Height : 480 pixels
Display aspect ratio : 4:3
Frame rate : 29.970 fps
Color space : YUV
Chroma subsampling : 4:2:0
Bit depth : 8 bits
Scan type : Progressive
Compression mode : Lossy
Bits/(Pixel*Frame) : 0.104
Stream size : 1.33 GiB (87%)
Writing library : SUPER(C).

Audio
ID : 1
Format : MPEG Audio
Format version : Version 1
Format profile : Layer 3
Mode : Joint stereo
Mode extension : MS Stereo
Codec ID : 55
Codec ID/Hint : MP3
Duration : 3h 17mn
Bit rate mode : Constant
Bit rate : 128 Kbps
Channel(s) : 2 channels
Sampling rate : 44.1 KHz
Compression mode : Lossy
Stream size : 181 MiB (12%)
Alignment : Aligned on interleaves
Interleave, duration : 26 ms (0.78 video frame)
Writing library : LAME

Screenshots




no mirrors please.
Visit Polik88 Blog Here
no password



Sponsored High Speed Downloads
6102 dl's @ 2767 KB/s
Download Now [Full Version]
9861 dl's @ 3172 KB/s
Download Link 1 - Fast Download
7488 dl's @ 3092 KB/s
Download Mirror - Direct Download



Search More...
Yoga Journal Presents: Iyengar Intensive at Estes Park (5 DVD Set) (Repost)

Search free ebooks in ebookee.com!


Links
Download this book

No active download links here?
Please check the description for download links if any or do a search to find alternative books.


Related Books


Comments

No comments for "Yoga Journal Presents: Iyengar Intensive at Estes Park (5 DVD Set) (Repost)".


    Add Your Comments
    1. Download links and password may be in the description section, read description carefully!
    2. Do a search to find mirrors if no download links or dead links.

    required

    required, will not be published

    need login

    required

    Not clear? Click here to refresh.

    Back to Top